вход на сайт

Имя пользователя :
Пароль :

Восстановление пароля Регистрация
Мачете убивает / Machete Kills (Роберт Родригес, боевик, комедия, 2013) [HDRip, Профессиональный (полное дублирование)]
Рейтинг:
(голосов: 1)



[img]{THEME}/images/logopost.png[/img]



Мачете убивает / Machete Kills

Год выпуска: 2013
Страна: США, Россия
Производство: 1821 Pictures, Aldamisa Entertainment, AR Films, Overnight Films, Quick Draw Productions
Жанр: боевик, комедия

Режиссёр: Роберт Родригес
В ролях: Дэнни Трехо, Мишель Родригес, Эмбер Хёрд, Демиан Бишир, Мэл Гибсон, София Вергара, Чарли Шин, Леди Гага, Алекса Вега, Антонио Бандерас

Перевод: Профессиональный (полное дублирование)
Субтитры: Нет

Описание: Правительство США вербует Мачете для миссии, которую не под силу выполнить простому смертному. Мачете прорывается в Мексику, чтобы схватить безумного лидера карательного отряда и эксцентричного миллиардера, торгующего оружием, который, в свою очередь, лелеет мечту начать войну планетарного масштаба и запустить смертельно опасное оружие в космос. И только Мачете может предотвратить этот глобальный хаос.Сэмпл

Качество: HDRip
Продолжительность: 01:47:59

Формат: AVI
Видео кодек: XviD
Аудио кодек: AC3
Видео: XviD, 640 x 352, 768 Кбит/сек, (16:9), 24,000 кадр/сек, 0.142 Бит/(Пиксели*Кадры)
Аудио: AC-3, 128 Кбит/сек, 2 канала, 48,0 КГц


Дата премьеры (мир): 19 сентября 2013
Дата премьеры (РФ): 24 октября 2013, «A Company», «Двадцатый Век Фокс СНГ»

"MI" ▼Общее
Полное имя : D:ТоррентыРЕЛИЗЫМачете убивает.2013.HDRip.700Mb.avi
Формат : AVI
Формат/Информация : Audio Video Interleave
Размер файла : 700 Мбайт
Продолжительность : 1 ч. 47 м.
Общий поток : 906 Кбит/сек
Программа кодирования : VirtualDubMod 1.5.10.3 (build 2550/release)
Библиотека кодирования : VirtualDubMod build 2550/release

Видео
Идентификатор : 0
Формат : MPEG-4 Visual
Профиль формата : Advanced [email protected]
Параметр BVOP формата : 2
Параметр QPel формата : Нет
Параметр GMC формата : Без точки перехода
Параметр матрицы формата : Выборочная
Идентификатор кодека : XVID
Идентификатор кодека/Подсказка : XviD
Продолжительность : 1 ч. 47 м.
Битрейт : 768 Кбит/сек
Ширина : 640 пикс.
Высота : 352 пикс.
Соотношение сторон : 16:9
Частота кадров : 24,000 кадр/сек
Цветовое пространство : YUV
Подвыборка цветности : 4:2:0
Битовая глубина : 8 бит
Тип развёртки : Прогрессивная
Метод сжатия : С потерями
Бит/(Пиксели*Кадры) : 0.142
Размер потока : 594 Мбайт (85%)
Библиотека кодирования : XviD 1.2.1 (UTC 2008-12-04)

Аудио
Идентификатор : 1
Формат : AC-3
Формат/Информация : Audio Coding 3
Расширение режима : CM (complete main)
Идентификатор кодека : 2000
Продолжительность : 1 ч. 47 м.
Вид битрейта : Постоянный
Битрейт : 128 Кбит/сек
Каналы : 2 канала
Расположение каналов : Front: L R
Частота : 48,0 КГц
Битовая глубина : 16 бит
Метод сжатия : С потерями
Размер потока : 98,9 Мбайт (14%)
Выравнивание : Разделение по промежуткам
Продолжительность промежутка : 42 мс. (1,00 видеокадр)
Время предзагрузки промежутка : 500 ms



Наши рипы / Набор в РГ / Стол заказов РГ / Новости РГ


90ceb7eede30a32cc23bb117a8de3d568849b6a3Мачете убивает / Machete Kills (Роберт Родригес, боевик, комедия, 2013) [HDRip, Профессиональный (полное дублирование)] Мачете убивает / Machete Kills (Роберт Родригес, боевик, комедия, 2013) [HDRip, Профессиональный (полное дублирование)] " />

Аплоадер: Админ, дата: 10-12-2013, 20:37, торрент скачан: 359 раз

Понравилась раздача? Посмотрите эти:
  • Мачете убивает / Machete Kills (Роберт Родригес, Боевик, комедия, 2013) [BD ...
  • [iPhone, iPod] Мачете убивает / Machete Kills (Роберт Родригес, боевик, ком ...
  • Мачете убивает / Machete Kills (Роберт Родригес, боевик, комедия, 2013) [48 ...
  • Мачете убивает / Machete Kills (Роберт Родригес, боевик, комедия, 2013) [HD ...
  • Мачете убивает / Machete Kills (Роберт Родригес, боевик, комедия, 2013) [Bl ...
  • Мачете убивает / Machete Kills (Роберт Родригес, боевик, комедия, 2013) [HD ...
  • Мачете убивает / Machete Kills (Роберт Родригес, боевик, комедия, 2013) [HD ...
  • Мачете убивает / Machete Kills (Роберт Родригес, боевик, комедия, 2013) [BD ...
  • Малавита / The Family (Люк Бессон, Криминал, комедия, боевик, 2013) [DVDRip ...
  • (2013, Сборник) Мачете убивает / Machete Kills (OST, Score) [MP3, 320 / CBR ...
  • Призрачный патруль / R.I.P.D. (Роберт Швентке, фэнтези, боевик, комедия, кр ...
  • [Тизер] Мачете убивает / Machete Kills (Роберт Родригез, боевик, триллер, к ...
  • Мачете / Machete (Роберт Родригес, боевик, триллер, криминал, 2010) [BDRip- ...
  • Мачете / Machete (Этан Маникис, Боевик, 2010) [BDRip - AVC, Дубляж]
  • Жил-был тигр / Ek Tha Tiger (Кабир Кхан, боевик, триллер , 2012) [ HDRip, ...
  • Мачете / Machete (Этан Маникис, Роберт Родригес, боевик, триллер, комедия, ...
  • Мачете / Machete (Роберт Родригес / Robert Rodriguez, боевик, триллер, крим ...
  • Мачете / Machete (Этан Маникис / Ethan Maniquis, Роберт Родригес / Robert R ...
  • Мачете / Machete (Этан Маникис, Роберт Родригес, боевик, триллер, криминал, ...
  • Челюсти 3D / Shark Night 3D (Дэвид Р. Эллис, ужасы, триллер, 2011) [HDRip, ...
  • Информация
    Посетители, находящиеся в группе Гости, не могут оставлять комментарии к данной публикации.