вход на сайт

Имя пользователя :
Пароль :

Восстановление пароля Регистрация
Как поймать перо Жар-Птицы (Георгий Гитис, Вячеслав Плотников, мультфильм, фэнтези, 2013) [BDRip, Не требуется]
Рейтинг:
(голосов: 1)



[img]{THEME}/images/logopost.png[/img]



Как поймать перо Жар-Птицы

Год выпуска: 2013
Страна: Россия
Производство: Руссобит-М
Жанр: мультфильм, фэнтези

Режиссёр: Георгий Гитис, Вячеслав Плотников
В ролях: Михаил Озеров, Дмитрий Дюжев, Юлия Савичева, Андрей Леонов, Нонна Гришаева, Алексей Колган, Михаил Хрусталев, Анатолий Петров, Юлия Галдун, Владимир Горбунов

Перевод: Не требуется
Субтитры: Нет

Описание: Во исполнение воли царя Берендея, младший сын его Иван отправляется на поиски диковинной Жар-птицы. В поисках удачи Ивана Царевича сопровождает верный друг и помощник — Серый Волк, который, обладает всевозможными навыками и всегда спешит на помощь простодушному Ивану. Героев ждут увлекательные и опасные приключения, козни коварных братьев Ивана и его судьбоносная встреча с Еленой Прекрасной. Юные зрители погрузятся в волшебный мир русской сказки, с её традициями и характерной эстетикой, причудливо перемежающейся с приметами современного жанрового кино. Ну, а родители оценят актуальный юмор и модную современную музыку, написанную специально для фильма популярными рок-музыкантами.Релиз от:
Автор рипа: avproh

Сэмпл

Качество: BDRip / Blu-ray 1080p
Продолжительность: 01:08:41

Формат: AVI
Видео кодек: XviD
Аудио кодек: МР3
Видео: 720x400 (16:9), 24.000 fps, XVID ~1379 kbps avg, 0.200 bit/pixel
Аудио: Русский 48 kHz, МР3, 2 ch, 128.00 kbps Constant

Дата премьеры (мир): 24 октября 2013
Дата премьеры (РФ): 24 октября 2013, «Наше Кино»

"MI" ▼Общее
Полное имя : Kak.poimat.pero.Jar-Ptitsy.2013.O.BDRip.745MB_[New-Team]_by_avproh.avi
Формат : AVI
Формат/Информация : Audio Video Interleave
Размер файла : 745 Мбайт
Продолжительность : 1 ч. 8 м.
Общий поток : 1517 Кбит/сек
Программа кодирования : VirtualDubModRus 1.5.10.2 (build 2542/release)
Библиотека кодирования : VirtualDubMod build 2542/release

Видео
Идентификатор : 0
Формат : MPEG-4 Visual
Профиль формата : Advanced [email protected]
Параметр BVOP формата : 1
Параметр QPel формата : Нет
Параметр GMC формата : Без точки перехода
Параметр матрицы формата : Выборочная
Идентификатор кодека : XVID
Идентификатор кодека/Подсказка : XviD
Продолжительность : 1 ч. 8 м.
Битрейт : 1379 Кбит/сек
Ширина : 720 пикселей
Высота : 400 пикселей
Соотношение сторон : 16:9
Частота кадров : 24,000 кадра/сек
Цветовое пространство : YUV
Субдискретизация насыщенности : 4:2:0
Битовая глубина : 8 бит
Тип развёртки : Прогрессивная
Метод сжатия : С потерями
Бит/(Пиксели*Кадры) : 0.200
Размер потока : 678 Мбайт (91%)
Библиотека кодирования : XviD 73

Аудио
Идентификатор : 1
Формат : MPEG Audio
Версия формата : Version 1
Профиль формата : Layer 3
Режим : Joint stereo
Расширение режима : MS Stereo
Идентификатор кодека : 55
Идентификатор кодека/Подсказка : MP3
Продолжительность : 1 ч. 8 м.
Вид битрейта : Постоянный
Битрейт : 128 Кбит/сек
Каналы : 2 канала
Частота : 48,0 КГц
Метод сжатия : С потерями
Размер потока : 62,9 Мбайт (8%)
Выравнивание : Соединение по промежуткам
Продолжительность промежутка : 42 мс. (1,00 видеокадр)
Время предзагрузки промежутка : 504 мс.




29ff1f80a04946cf765d6d1d9b18ec76d1005fd6Как поймать перо Жар-Птицы (Георгий Гитис, Вячеслав Плотников, мультфильм, фэнтези, 2013) [BDRip, Не требуется] Как поймать перо Жар-Птицы (Георгий Гитис, Вячеслав Плотников, мультфильм, фэнтези, 2013) [BDRip, Не требуется] " />

Аплоадер: Админ, дата: 29-11-2013, 23:51, торрент скачан: 359 раз

Понравилась раздача? Посмотрите эти:
  • Как поймать перо Жар-Птицы (Георгий Гитис, Вячеслав Плотников, мультфильм, ...
  • Как поймать перо Жар-Птицы (Георгий Гитис, Вячеслав Плотников, Мультфильм, ...
  • Как поймать перо Жар-Птицы (Георгий Гитис, Вячеслав Плотников, мультфильм, ...
  • Как поймать перо Жар-Птицы (Георгий Гитис, Вячеслав Плотников, мультфильм, ...
  • Как поймать перо Жар-Птицы (Георгий Гитис, Вячеслав Плотников, мультфильм, ...
  • Как поймать перо Жар-Птицы (Георгий Гитис, Вячеслав Плотников, мультфильм, ...
  • Как поймать перо Жар-Птицы (Георгий Гитис, Вячеслав Плотников, мультфильм, ...
  • Как поймать перо Жар-Птицы (Георгий Гитис, Вячеслав Плотников, мультфильм, ...
  • Околофутбола (Антон Борматов, драма, криминал, 2013) [DVDRip, Не требуется] ...
  • Слежка / The Letter (Джей Ананья, Триллер, драма, 2012) [DVDRip, Профессион ...
  • Миллион для чайников / The Brass Teapot (Рамаа Мосли, Фэнтези, триллер, ком ...
  • Астрал на улице Арлетт / 388 Arletta Avenue (Рэндолл Коул, Триллер, 2011) [ ...
  • Злые птицы: Хэллоуин / Angry Birds: HamOWeen (Джей Ройвайнен, Мультфильм, к ...
  • Вечерний Ургант // Сезон 2. Выпуск 56 (ТВ-шоу, 11.12.2012) [SATRip, Не треб ...
  • Бог любви / God of Love (Люк Мэзени, Короткометражка, фэнтези, комедия, мел ...
  • Любовь по расписанию / Поезд (Сергей Мезенцев, мелодрама, 2012) [HDTVRip, Н ...
  • Вечерний Ургант // Сезон 2. Выпуск 62 (ТВ-шоу, 19.12.2012) [SATRip, Не треб ...
  • Вечерний Ургант // Сезон 2. Выпуск 63 (ТВ-шоу, 20.12.2012) [SATRip, Не треб ...
  • Кейси Джонс / Casey Jones (Иларион Бэнкс, Короткометражка, фэнтези, боевик, ...
  • Вечерний Ургант // Сезон 2. Выпуск 64 (ТВ-шоу, 21.12.2012) [SATRip, Не треб ...
  • Вечерний Ургант // Сезон 2. Выпуск 66 (ТВ-шоу, 25.12.2012) [SATRip, Не треб ...
  • Покорить высоту / Take It to the Limit (Сэм Кит / Sam Kieth, семейный, 2000 ...
  • Светлячок. Воссоединение Коричневых плащей к 10 годовщине / Firefly 10th An ...
  • [Тизер] Иван Царевич и Жар-птица (Вячеслав Плотников, мультфильм, фэнтези ...
  • Бюро находок : Потерянный и найденный / Lost and Found (Филип Хант, коротко ...
  • Информация
    Посетители, находящиеся в группе Гости, не могут оставлять комментарии к данной публикации.