вход на сайт

Имя пользователя :
Пароль :

Восстановление пароля Регистрация
Как поймать перо Жар-Птицы (Георгий Гитис, Вячеслав Плотников, мультфильм, фэнтези, 2013) [BDRip, Не требуется]
Рейтинг:
(голосов: 1)



[img]{THEME}/images/logopost.png[/img]



Как поймать перо Жар-Птицы

Год выпуска: 2013
Страна: Россия
Производство: Руссобит-М
Жанр: мультфильм, фэнтези

Режиссёр: Георгий Гитис, Вячеслав Плотников
В ролях: Михаил Озеров, Дмитрий Дюжев, Юлия Савичева, Андрей Леонов, Нонна Гришаева, Алексей Колган, Михаил Хрусталев, Анатолий Петров, Юлия Галдун, Владимир Горбунов

Перевод: Не требуется
Субтитры: Нет

Описание: Во исполнение воли царя Берендея, младший сын его Иван отправляется на поиски диковинной Жар-птицы. В поисках удачи Ивана Царевича сопровождает верный друг и помощник — Серый Волк, который, обладает всевозможными навыками и всегда спешит на помощь простодушному Ивану. Героев ждут увлекательные и опасные приключения, козни коварных братьев Ивана и его судьбоносная встреча с Еленой Прекрасной. Юные зрители погрузятся в волшебный мир русской сказки, с её традициями и характерной эстетикой, причудливо перемежающейся с приметами современного жанрового кино. Ну, а родители оценят актуальный юмор и модную современную музыку, написанную специально для фильма популярными рок-музыкантами.Релиз от:
Автор рипа: avproh

Сэмпл

Качество: BDRip / Blu-ray 1080p
Продолжительность: 01:08:41

Формат: AVI
Видео кодек: XviD
Аудио кодек: AC-3
Видео: 720x400 (16:9), 24.000 fps, XVID ~2394 kbps avg, 0.346 bit/pixel
Аудио: Русский 48 kHz, АС3, 6 ch, 448.00 kbps Constant

Дата премьеры (мир): 24 октября 2013
Дата премьеры (РФ): 24 октября 2013, «Наше Кино»

"MI" ▼Общее
Полное имя : Kak.poimat.pero.Jar-Ptitsy.2013.O.BDRip_[New-Team]_by_avproh.avi
Формат : AVI
Формат/Информация : Audio Video Interleave
Размер файла : 1,37 Гбайт
Продолжительность : 1 ч. 8 м.
Общий поток : 2851 Кбит/сек
Программа кодирования : VirtualDubModRus 1.5.10.2 (build 2542/release)
Библиотека кодирования : VirtualDubMod build 2542/release

Видео
Идентификатор : 0
Формат : MPEG-4 Visual
Профиль формата : Advanced [email protected]
Параметр BVOP формата : 1
Параметр QPel формата : Нет
Параметр GMC формата : Без точки перехода
Параметр матрицы формата : Выборочная
Идентификатор кодека : XVID
Идентификатор кодека/Подсказка : XviD
Продолжительность : 1 ч. 8 м.
Битрейт : 2394 Кбит/сек
Ширина : 720 пикселей
Высота : 400 пикселей
Соотношение сторон : 16:9
Частота кадров : 24,000 кадра/сек
Цветовое пространство : YUV
Субдискретизация насыщенности : 4:2:0
Битовая глубина : 8 бит
Тип развёртки : Прогрессивная
Метод сжатия : С потерями
Бит/(Пиксели*Кадры) : 0.346
Размер потока : 1,15 Гбайт (84%)
Библиотека кодирования : XviD 73

Аудио
Идентификатор : 1
Формат : AC-3
Формат/Информация : Audio Coding 3
Расширение режима : CM (complete main)
Параметр Endianness формата : Big
Идентификатор кодека : 2000
Продолжительность : 1 ч. 8 м.
Вид битрейта : Постоянный
Битрейт : 448 Кбит/сек
Каналы : 6 каналов
Расположение каналов : Front: L C R, Side: L R, LFE
Частота : 48,0 КГц
Битовая глубина : 16 бит
Метод сжатия : С потерями
Размер потока : 220 Мбайт (16%)
Выравнивание : Разделение по промежуткам
Продолжительность промежутка : 42 мс. (1,00 видеокадр)
Время предзагрузки промежутка : 500 мс.




597a0012ce140eba3fdb8f1b5d76afd85a149ef7Как поймать перо Жар-Птицы (Георгий Гитис, Вячеслав Плотников, мультфильм, фэнтези, 2013) [BDRip, Не требуется] Как поймать перо Жар-Птицы (Георгий Гитис, Вячеслав Плотников, мультфильм, фэнтези, 2013) [BDRip, Не требуется] " />

Аплоадер: Админ, дата: 29-11-2013, 23:46, торрент скачан: 359 раз

Понравилась раздача? Посмотрите эти:
  • Бойфренд из будущего / About Time (Ричард Кёртис, Фантастика, драма, комеди ...
  • Одноклассники 2 / Grown Ups 2 (Деннис Дуган, Комедия, 2013) [BDRip, Професс ...
  • Как поймать перо Жар-Птицы (Георгий Гитис, Вячеслав Плотников, мультфильм, ...
  • Как поймать перо Жар-Птицы (Георгий Гитис, Вячеслав Плотников, Мультфильм, ...
  • Как поймать перо Жар-Птицы (Георгий Гитис, Вячеслав Плотников, мультфильм, ...
  • Как поймать перо Жар-Птицы (Георгий Гитис, Вячеслав Плотников, мультфильм, ...
  • Как поймать перо Жар-Птицы (Георгий Гитис, Вячеслав Плотников, мультфильм, ...
  • Как поймать перо Жар-Птицы (Георгий Гитис, Вячеслав Плотников, мультфильм, ...
  • Как поймать перо Жар-Птицы (Георгий Гитис, Вячеслав Плотников, мультфильм, ...
  • Как поймать перо Жар-Птицы (Георгий Гитис, Вячеслав Плотников, мультфильм, ...
  • Околофутбола (Антон Борматов, драма, криминал, 2013) [DVDRip, Не требуется] ...
  • Кровью и потом: Анаболики / Pain & Gain (Майкл Бэй, криминал, комедия, трил ...
  • Миллион для чайников / The Brass Teapot (Рамаа Мосли, Фэнтези, триллер, ком ...
  • Миллион для чайников / The Brass Teapot (Рамаа Мосли, Фэнтези, триллер, ком ...
  • Астрал на улице Арлетт / 388 Arletta Avenue (Рэндолл Коул, Триллер, 2011) [ ...
  • Таймлесс. Рубиновая книга / Rubinrot (Феликс Фуксштайнер, Фантастика, фэнте ...
  • Снежная королева (Максим Свешников, Владлен Барбэ, Мультфильм, фэнтези, при ...
  • Жил-был тигр / Ek Tha Tiger (Кабир Кхан, боевик, триллер , 2012) [ HDRip, ...
  • Злые птицы: Хэллоуин / Angry Birds: HamOWeen (Джей Ройвайнен, Мультфильм, к ...
  • Боец из трущоб / Gutter King (Кейт Алан Моррис / Keith Alan Morris, боевик, ...
  • [Тизер] Иван Царевич и Жар-птица (Вячеслав Плотников, мультфильм, фэнтези ...
  • Приключения Тинтина: Тайна Единорога / The Adventures of Tintin (Стивен Спи ...
  • Гениальный папа / Father of Invention (Трент Купер, Драма, комедия, 2010) [ ...
  • Человек из банки (Иван Кульнев, Комедия, 2012) [DVDRip, Не требуется]
  • Сдохни, Джон Такер / John Tucker Must Die (Бетти Томас, мелодрама, комедия, ...
  • Информация
    Посетители, находящиеся в группе Гости, не могут оставлять комментарии к данной публикации.