вход на сайт

Имя пользователя :
Пароль :

Восстановление пароля Регистрация
Великая красота / La grande bellezza (Паоло Соррентино, драма, комедия, 2013) [HDRip-AVC, Профессиональный (многоголосый закадровый) [НТВ+]]
Рейтинг:
(голосов: 1)



[img]{THEME}/images/logopost.png[/img]



Великая красота / La grande bellezza

Год выпуска: 2013
Страна: Италия
Производство: Canal+ [fr], France 2 Cinéma, Babe Film, Medusa Film S.p.a.
Жанр: драма, комедия

Режиссёр: Паоло Соррентино
В ролях: Тони Сервилло, Карло Вердоне, Сабрина Ферилли, Карло Буччироссо, Яя Форте, Памела Виллорези, Галатея Ранци, Франко Грациози, Джорджо Пазотти, Массимо Пополицио

Перевод: Профессиональный (многоголосый закадровый) [НТВ+]
Субтитры: Английские, Итальянские

Описание: Аристократки, нувориши, политики, преступники высокого полёта, журналисты, актёры, декаденствующие отпрыски благородных семейств, священники, художники, подлинные или мнимые интеллектуалы… Всех их поглощает современный Вавилон, пока они ткут канву непрочных взаимоотношений, предаваясь суетной жизни на фоне старинных дворцов, огромных вилл и великолепных террас. Все они здесь, и никто не предстаёт в выгодном свете.

Апатичный и разочарованный 65-летний Джеп Гамбарделла, писатель и журналист, не расстающийся со стаканом джина с тоником, наблюдает за этим парадом влиятельных, но пустых и потерянных людей, которые производят на него гнетущее впечатление. Головокружительная картина потери нравственных ориентиров разворачивается в атмосфере великолепного и безразличного римского лета. Вечный город подобен умершей диве.

Дата премьеры (мир): 21 мая 2013
Дата премьеры (РФ): 10 октября 2013


Качество: HDRip-AVC
Продолжительность: 02:20:41

Формат: MKV
Видео кодек: AVC
Аудио кодек: AC3
Видео: 880x374 (2.35:1), 24.000 fps, AVC ~1284 kbps avg, 0.163 bit/pix
Аудио: 48 kHz, AC3 Dolby Digital, (L, R) ch, 192 kbps
MediaInfo ▼TextОбщее
Уникальный идентификатор : 244534132829486010307008930471367969128 (0xB7F78F9619D1AC2CAAF61CA3C2BC8968)
Полное имя : H:Великая красотаVelikaja_krasota_2013_HDRip_AVC_MVO.mkv
Формат : Matroska
Размер файла : 1,45 Гбайт
Продолжительность : 2 ч. 20 м.
Общий поток : 1478 Кбит/сек
Название фильма : La grande bellezza 2013
Дата кодирования : UTC 2013-11-20 10:36:47
Программа кодирования : mkvmerge v6.2.0 (Promised Land) built on Apr 28 2013 12:22:01
Библиотека кодирования : libebml v1.3.0 + libmatroska v1.4.0

Видео
Идентификатор : 1
Формат : AVC
Формат/Информация : Advanced Video Codec
Профиль формата : [email protected]
Параметр CABAC формата : Да
Параметр ReFrames формата : 11 кадры
Идентификатор кодека : V_MPEG4/ISO/AVC
Продолжительность : 2 ч. 20 м.
Битрейт : 1284 Кбит/сек
Ширина : 880 пикс.
Высота : 374 пикс.
Соотношение сторон : 2,35:1
Частота кадров : 24,000 кадр/сек
Цветовое пространство : YUV
Подвыборка цветности : 4:2:0
Битовая глубина : 8 бит
Тип развёртки : Прогрессивная
Бит/(Пиксели*Кадры) : 0.163
Размер потока : 1,23 Гбайт (85%)
Библиотека кодирования : x264 core 133 r2334 a3ac64b
Настройки программы : cabac=1 / ref=11 / deblock=1:-3:-2 / analyse=0x3:0x133 / me=umh / subme=10 / psy=1 / psy_rd=1.05:0.12 / mixed_ref=1 / me_range=32 / chroma_me=1 / trellis=2 / 8x8dct=1 / cqm=0 / deadzone=21,11 / fast_pskip=0 / chroma_qp_offset=-3 / threads=6 / lookahead_threads=1 / sliced_threads=0 / nr=0 / decimate=0 / interlaced=0 / bluray_compat=0 / constrained_intra=0 / bframes=12 / b_pyramid=2 / b_adapt=2 / b_bias=0 / direct=3 / weightb=1 / open_gop=0 / weightp=2 / keyint=240 / keyint_min=24 / scenecut=40 / intra_refresh=0 / rc_lookahead=80 / rc=2pass / mbtree=0 / bitrate=1284 / ratetol=2.0 / qcomp=0.70 / qpmin=0 / qpmax=69 / qpstep=4 / cplxblur=20.0 / qblur=0.5 / vbv_maxrate=25000 / vbv_bufsize=30000 / nal_hrd=none / ip_ratio=1.40 / pb_ratio=1.30 / aq=2:0.90
Язык : English

Аудио
Идентификатор : 2
Формат : AC-3
Формат/Информация : Audio Coding 3
Расширение режима : CM (complete main)
Идентификатор кодека : A_AC3
Продолжительность : 2 ч. 20 м.
Вид битрейта : Постоянный
Битрейт : 192 Кбит/сек
Канал(ы) : 2 канала(ов)
Расположение каналов : Front: L R
Частота : 48,0 КГц
Битовая глубина : 16 бит
Метод сжатия : С потерями
Размер потока : 193 Мбайт (13%)
Заголовок : НТВ+
Язык : Russian

Текст #1
Ид
2034d0a9ccb2c77b8cdd16ee6053eae59f3bae7bВеликая красота / La grande bellezza (Паоло Соррентино, драма, комедия, 2013) [HDRip-AVC, Профессиональный (многоголосый закадровый) [НТВ+]] Великая красота / La grande bellezza (Паоло Соррентино, драма, комедия, 2013) [HDRip-AVC, Профессиональный (многоголосый закадровый) [НТВ+]] " />

Аплоадер: Админ, дата: 20-11-2013, 23:32, торрент скачан: 359 раз

Понравилась раздача? Посмотрите эти:
  • Великая красота / La grande bellezza (Паоло Соррентино, драма, комедия, 201 ...
  • Великая красота / La grande bellezza (Паоло Соррентино, драма, комедия, 201 ...
  • Околофутбола (Антон Борматов, драма, криминал, 2013) [BDRip-AVC, Не требует ...
  • Тело / El cuerpo (Ориол Паоло, триллер, 2012) [BDRip-AVC, Авторский (одного ...
  • Фантом / Phantom (Тодд Робинсон, триллер, 2013) [BDRip-AVC, Профессиональны ...
  • Погнали! / Getaway (Кортни Соломон, боевик, криминал, 2013) [BDRip-AVC, Про ...
  • Мальчишник: Часть III / The Hangover Part III (Тодд Филлипс, Комедия, 2013) ...
  • Летучий отряд Скотланд-Ярда / The Sweeney (Ник Лав, Боевик, драма, криминал ...
  • Порочные игры / Stoker (Пак Чхан Ук, Триллер, драма, детектив, 2013) [BDRip ...
  • Порочные игры / Stoker (Пак Чхан Ук, Триллер, драма, детектив, 2013) [BDRip ...
  • Голливудский мусор / Garbage (Филипп Волкен, драма, комедия, 2013) [HDTVRip ...
  • Клин клином / Fire with Fire (Дэвид Баррет, боевик, триллер, криминал, 2012 ...
  • Мрачные небеса / Dark Skies (Скотт Чарльз Стюарт, ужасы, фантастика, трилле ...
  • Идеальный голос / Pitch Perfect (Джейсон Мур, Мелодрама, комедия, музыка, 2 ...
  • Переполох на районе / Les Kaira (Франк Гастамбиде, комедия, 2012) [HDRip-AV ...
  • Суррогат / The Sessions (Бен Луин, Драма, 2012) [BDRip-AVC, Профессиональны ...
  • Иностранный легион / La cité (Ким Нгуйен / Kim Nguyen, драма, 2010) [DVDRip ...
  • Финишная прямая / La ligne droite (Режис Варнье, драма, спорт, 2011) [HDRip ...
  • На Дороге / On The Road (Уолтер Саллес, Драма, приключения, 2012) [HDRip-AV ...
  • Павшая империя / Hirokin (Алехо Мо-Сан, фантастика, боевик, драма, приключе ...
  • Информация
    Посетители, находящиеся в группе Гости, не могут оставлять комментарии к данной публикации.