вход на сайт

Имя пользователя :
Пароль :

Восстановление пароля Регистрация
Грязь / Filth (Джон С. Бейрд, криминал, драма, комедия, 2013) [BDRip-AVC, Дублированный, Оригинал (Английский), субтитры]
Рейтинг:
(голосов: 1)



[img]{THEME}/images/logopost.png[/img]



Грязь / Filth
«This Little Piggy went to town!»

Год выпуска: 2013
Страна: Великобритания
Производство: Altitude Film Entertainment
Жанр: криминал, драма, комедия

Режиссёр: Джон С. Бейрд
В ролях:Джеймс МакЭвой, Джейми Белл, Джим Бродбент, Имоджен Путс, Йен де Кестекер, Джоанн Фроггатт, Иман Эллиотт, Ширли Хендерсон, Эдди Марсан, Мартин Компстон

Перевод: Дублированный, Оригинал (Английский)
Субтитры: English

Описание:Главный герой — продажный шотландский полицейский Брюс Робертсон, помешанный на сексе и кокаине. Ему бы надо расследовать убийство, но ему сильно мешают собственные странности, привычка разыгрывать коллег и беготня за девушками. За Робертсоном присматривают его напарник Рэй Леннокс и начальник Боб Тоал.



премьера (мир): 16 сентября 2013
премьера (РФ): 28 ноября 2013, «Cinema Prestige»

Качество: BDRip-AVC
Продолжительность: 01:37:04

Формат: MKV
Видео кодек: H.264
Аудио кодек: AC3
Видео: 1024x436 (2,35:1), 23.976 fps, H.264 ~2 310 kbps avg, 0.216 bit/pixel
Аудио#1: 48 kHz, AC3, 6 ch, ~384 kbps avg Дублированный
Аудио#2: 48 kHz, AC3, 6 ch, ~448 kbps avg Оригинал

Media Info ▼Format : Matroska
Format version : Version 4 / Version 2
File size : 2.13 GiB
Duration : 1h 37mn
Overall bit rate : 3 139 Kbps
Encoded date : UTC 2014-01-25 18:04:00
Writing application : mkvmerge v6.1.0 (Old Devil) built on Mar 4 2013 09:10:42
Writing library : libebml v1.3.0 + libmatroska v1.4.0

Video
ID : 1
Format : AVC
Format/Info : Advanced Video Codec
Format profile : [email protected]
Format settings, CABAC : Yes
Format settings, ReFrames : 10 frames
Codec ID : V_MPEG4/ISO/AVC
Duration : 1h 37mn
Bit rate : 2 310 Kbps
Width : 1 024 pixels
Height : 436 pixels
Display aspect ratio : 2.35:1
Frame rate : 24.000 fps
Color space : YUV
Chroma subsampling : 4:2:0
Bit depth : 8 bits
Scan type : Progressive
Bits/(Pixel*Frame) : 0.216
Stream size : 1.53 GiB (72%)
Writing library : x264 core 130 r2273 b3065e6
Encoding settings : cabac=1 / ref=10 / deblock=1:-2:-2 / analyse=0x3:0x113 / me=umh / subme=11 / psy=1 / psy_rd=1.00:0.20 / mixed_ref=1 / me_range=64 / chroma_me=1 / trellis=2 / 8x8dct=1 / cqm=0 / deadzone=21,11 / fast_pskip=0 / chroma_qp_offset=-3 / threads=6 / lookahead_threads=1 / sliced_threads=0 / nr=0 / decimate=0 / interlaced=0 / bluray_compat=0 / constrained_intra=0 / bframes=11 / b_pyramid=2 / b_adapt=2 / b_bias=0 / direct=3 / weightb=1 / open_gop=0 / weightp=2 / keyint=250 / keyint_min=25 / scenecut=40 / intra_refresh=0 / rc=2pass / mbtree=0 / bitrate=2310 / ratetol=1.0 / qcomp=0.60 / qpmin=0 / qpmax=69 / qpstep=4 / cplxblur=20.0 / qblur=0.5 / ip_ratio=1.40 / pb_ratio=1.30 / aq=1:0.80
Language : English

Audio #1
ID : 2
Format : AC-3
Format/Info : Audio Coding 3
Mode extension : CM (complete main)
Codec ID : A_AC3
Duration : 1h 37mn
Bit rate mode : Constant
Bit rate : 384 Kbps
Channel(s) : 6 channels
Channel positions : Front: L C R, Side: L R, LFE
Sampling rate : 48.0 KHz
Bit depth : 16 bits
Compression mode : Lossy
Stream size : 267 MiB (12%)
Title : Дублированный (Лицензия)
Language : Russian

Audio #2
ID : 3
Format : AC-3
Format/Info : Audio Coding 3
Mode extension : CM (complete main)
Codec ID : A_AC3
Duration : 1h 37mn
Bit rate mode : Constant
Bit rate : 448 Kbps
Channel(s) : 6 channels
Channel positions : Front: L C R, Side: L R, LFE
Sampling rate : 48.0 KHz
Bit depth : 16 bits
Compression mode : Lossy
Stream size : 312 MiB (14%)
Language : English

Text
ID : 4
Format : UTF-8
Codec ID : S_TEXT/UTF8
Codec ID/Info : UTF-8 Plain Text
Language : English

Menu
00:00:00.000 : :Chapter 01
00:08:15.500 : :Chapter 02
00:15:56.791 : :Chapter 03
00:24:38.666 : :Chapter 04
00:32:36.125 : :Chapter 05
00:40:55.916 : :Chapter 06
00:48:00.458 : :Chapter 07
00:56:09.000 : :Chapter 08
01:03:43.833 : :Chapter
d50f6234e2382f963f31c428df9a89fd1462cb8fГрязь / Filth (Джон С. Бейрд, криминал, драма, комедия, 2013) [BDRip-AVC, Дублированный, Оригинал (Английский), субтитры] Грязь / Filth (Джон С. Бейрд, криминал, драма, комедия, 2013) [BDRip-AVC, Дублированный, Оригинал (Английский), субтитры] " />

Аплоадер: Админ, дата: 26-01-2014, 02:19, торрент скачан: 359 раз

Понравилась раздача? Посмотрите эти:
  • Два ствола / 2 Guns (Бальтасар Кормакур, боевик, триллер, драма, комедия, к ...
  • Армагеддец / The Worlds End (Эдгар Райт, фантастика, боевик, комедия, 2013) ...
  • За кадром... / In a World...(Лэйк Белл, комедия, 2013) [BDRip-AVC, Професси ...
  • Грязь / Filth (Джон С. Бейрд, криминал, драма, комедия, 2013) [BDRip, Дубли ...
  • Грязь / Filth (Джон С. Бейрд, криминал, драма, комедия, 2013) [DVDRip-AVC, ...
  • Грязь / Filth (Джон С. Бейрд, криминал, драма, комедия, 2013) [HDRip, Дубли ...
  • Грязь / Filth(Джон С. Бейрд, Драма, комедия, криминал, 2013) [HDRip-AVC, Пр ...
  • Погнали! / Getaway (Кортни Соломон, боевик, криминал, 2013) [BDRip 720p, Пр ...
  • Хроника / Chronicle (Джошуа Транк, фантастика, боевик, триллер, драма, 2012 ...
  • Даю год / I Give It a Year (Дэн Мазер, Мелодрама, Комедия, 2013) [BDRip-AVC ...
  • О чём молчат девушки (Карен Оганесян, Комедия, 2013) [BDRip-AVC, Не требует ...
  • Суррогат / The Sessions (Бен Луин, драма, 2012) [BDRip 720p, Профессиональн ...
  • Персонаж / Stranger Than Fiction (Марк Форстер, Комедия, драма, фантастика, ...
  • Бедная богатая девочка / Young Adult (Джейсон Райтман, драма, комедия, 2011 ...
  • Жизнь прекрасна / La Vita è bella (Роберто Бениньи, Драма, мелодрама, комед ...
  • [3D] Шаг вперед 3D / Step Up 3D (Джон М. Чу, мелодрама, драма, музыка, 2010 ...
  • [3D] Глаз ребенка / Childs Eye (Оксид Пан, ужасы, 2010) [BDRip, Дублированн ...
  • Секс по дружбе / Friends with Benefits (Уилл Глак, драма, мелодрама, комеди ...
  • Бриллиантовая рука (Леонид Гайдай, комедия, криминал, приключения, 1968) [B ...
  • Ю-571 / U-571 (Джонатан Мостоу, Боевик, 2000) [BDRip - AVC, Дубляж + Субтит ...
  • Mylene Farmer / Du Temps [2011, Pop, HDTVRip]
  • Mylene Farmer / Bleu Noir [2011, Pop, HDTVRip]
  • [3D] Шаг вперед / Step Up (Джон М. Чу, драма, мелодрама, музыка, 2010) [B ...
  • Собачье сердце (Владимир Бортко, фантастика, драма, комедия, 1988) [BDRip 1 ...
  • Шерлок Холмс: Игра теней / Sherlock Holmes: A Game of Shadows (Гай Ричи, Бо ...
  • Информация
    Посетители, находящиеся в группе Гости, не могут оставлять комментарии к данной публикации.