вход на сайт

Имя пользователя :
Пароль :

Восстановление пароля Регистрация
Каньоны / The Canyons (Пол Шредер, триллер, драма, 2013) [BDRip AVC, Дублированный, субтитры]
Рейтинг:
(голосов: 1)



[img]{THEME}/images/logopost.png[/img]



Каньоны / The Canyons


Год выпуска: 2013
Страна: США
Производство: Sodium Foxs
Жанр: Триллер, драма

Режиссёр: Пол Шредер
В ролях: Линдси Лохан, Джеймс Дин, Нолан Фанк, Аманда Брукс, Тениль Хьюстон, Гас Ван Сент, Джарод Эйнсон, Виктор Фишбарг, Джим Бивен

Перевод: Дублированный
Субтитры: English, Spanish

Описание: Фильм - о судьбе двух влюбленных в "городе греха", Лос-Анджелесе. Они молоды, жаждут славы и денег, одержимы страстью. По законам жанра, где-то рядом, естественно, оказывается смерть, и цепочка кровавых событий приводит к неожиданным последствиям.



Дата премьеры (Мир): 29 июля 2013
Дата премьеры (РФ): 28 ноября 2013, «Top Film Distribution»

Качество: BDRip AVC
Продолжительность: 01:39:27

Формат: MKV
Видео кодек: AVC
Аудио кодек: AC3
Cвойства видео: 1024x432(2.40:1), 23.976 fps, ~1676 kbps avg, 0.158 bit/pixel
Свойства аудио: 48 kHz, AC3, 3/2 (L,C,R,l,r) + LFE ch, ~448.00 kbps avg
MediaInfo ▼Format : Matroska
Format version : Version 4 / Version 2
File size : 1.49 GiB
Duration : 1h 39mn
Overall bit rate : 2 151 Kbps
Encoded date : UTC 2014-01-22 16:17:23
Writing application : mkvmerge v6.1.0 (Old Devil) built on Mar 4 2013 09:10:42
Writing library : libebml v1.3.0 + libmatroska v1.4.0

Video
ID : 1
Format : AVC
Format/Info : Advanced Video Codec
Format profile : [email protected]
Format settings, CABAC : Yes
Format settings, ReFrames : 10 frames
Codec ID : V_MPEG4/ISO/AVC
Duration : 1h 39mn
Bit rate : 1 676 Kbps
Width : 1 024 pixels
Height : 432 pixels
Display aspect ratio : 2.40:1
Frame rate : 23.976 fps
Color space : YUV
Chroma subsampling : 4:2:0
Bit depth : 8 bits
Scan type : Progressive
Bits/(Pixel*Frame) : 0.158
Stream size : 1.15 GiB (77%)
Title : Rip by o3nazar03
Writing library : x264 core 130 r2273 b3065e6
Encoding settings : cabac=1 / ref=10 / deblock=1:-3:-3 / analyse=0x3:0x133 / me=umh / subme=10 / psy=1 / psy_rd=1.00:0.20 / mixed_ref=1 / me_range=32 / chroma_me=1 / trellis=2 / 8x8dct=1 / cqm=0 / deadzone=21,11 / fast_pskip=0 / chroma_qp_offset=-3 / threads=6 / lookahead_threads=1 / sliced_threads=0 / nr=0 / decimate=0 / interlaced=0 / bluray_compat=0 / constrained_intra=0 / bframes=8 / b_pyramid=2 / b_adapt=2 / b_bias=0 / direct=3 / weightb=1 / open_gop=0 / weightp=2 / keyint=250 / keyint_min=23 / scenecut=40 / intra_refresh=0 / rc_lookahead=60 / rc=2pass / mbtree=1 / bitrate=1676 / ratetol=1.0 / qcomp=0.60 / qpmin=0 / qpmax=69 / qpstep=4 / cplxblur=20.0 / qblur=0.5 / ip_ratio=1.40 / aq=1:1.00
Language : English
Default : Yes
Forced : No

Audio
ID : 2
Format : AC-3
Format/Info : Audio Coding 3
Mode extension : CM (complete main)
Format settings, Endianness : Big
Codec ID : A_AC3
Duration : 1h 39mn
Bit rate mode : Constant
Bit rate : 448 Kbps
Channel(s) : 6 channels
Channel positions : Front: L C R, Side: L R, LFE
Sampling rate : 48.0 KHz
Bit depth : 16 bits
Compression mode : Lossy
Stream size : 319 MiB (21%)
Language : Russian
Default : Yes
Forced : No

Text #1
ID : 3
Format : PGS
Muxing mode : zlib
Codec ID : S_HDMV/PGS
Codec ID/Info : The same subtitle format used on BDs/HD-DVDs
Language : English
Default : No
Forced : No

Text #2
ID : 4
Format : PGS
Muxing mode : zlib
Codec ID : S_HDMV/PGS
Codec ID/Info : The same subtitle format used on BDs/HD-DVDs
Language : Spanish
Default : No
Forced : No





d4bbf825a4cc5da70ba929c094560f451483df43Каньоны / The Canyons (Пол Шредер, триллер, драма, 2013) [BDRip AVC, Дублированный, субтитры] Каньоны / The Canyons (Пол Шредер, триллер, драма, 2013) [BDRip AVC, Дублированный, субтитры] " />

Аплоадер: Админ, дата: 22-01-2014, 22:45, торрент скачан: 359 раз

Понравилась раздача? Посмотрите эти:
  • Два ствола / 2 Guns (Бальтасар Кормакур, боевик, триллер, драма, комедия, к ...
  • Армагеддец / The Worlds End (Эдгар Райт, фантастика, боевик, комедия, 2013) ...
  • Сезон убийц / Killing Season (Марк Стивен Джонсон, триллер, драма, боевик, ...
  • Каньоны / The Canyons (Пол Шредер, триллер, драма, 2013) [HDRip, Дублирован ...
  • Грязь / Filth (Джон С. Бейрд, криминал, драма, комедия, 2013) [BDRip-AVC, ...
  • FLO / NRG [2012, Pop, Dance, MasterRip]
  • Eminem / Rap God [2013, Rap, HDRip]
  • Пастырь / Priest (Скотт Чарльз Стюарт, ужасы, фантастика, боевик, триллер, ...
  • Ученик мастера / Tai Chi 0 (Стивен Фанг, боевик, драма, 2012) [BDRip 720p, ...
  • Судная ночь / The Purge (Джеймс ДеМонако, триллер, ужасы, 2013) [BDRip-AVC, ...
  • Иллюзия обмана / Now You See Me [Theatrical Cut] (Луи Летерье / Louis Leter ...
  • Zомби каникулы (Кирилл Кемниц, Ужасы, триллер, комедия, 2013) [BDRip 720p, ...
  • Властелин любви / The Look of Love (Майкл Уинтерботтом, драма, комедия, био ...
  • 42 / 42 (Брайан Хелгеленд, Драма, биография, спорт, 2013) [BDRip 720p, Проф ...
  • Хроника / Chronicle (Джошуа Транк, фантастика, боевик, триллер, драма, 2012 ...
  • Тысяча слов / A Thousand Words (Брайан Роббинс, Комедия, драма, 2012) [BDRi ...
  • Тысяча слов / A Thousand Words (Брайан Роббинс, Комедия, драма, 2009) [BDRi ...
  • Погоня / Abduction (Джон Синглтон, боевик, триллер, драма, детектив, 2011) ...
  • Соучастник / Collateral (Майкл Манн, Триллер, драма, криминал, 2004) [BDRip ...
  • UFC The Ultimate 100 Knockouts - PPV [MMA,2013, HDTVRip 720p]
  • UFC - Best Of 2012 Year In Review[MMA,2013, BDRip 540p]
  • Странная жизнь Тимоти Грина / The Odd Life of Timothy Green (Питер Хеджес, ...
  • Ворон / The Raven (Джеймс МакТиг, Триллер, детектив, 2012) [BDRip 720p, Дуб ...
  • Mylene Farmer / Du Temps [2011, Pop, HDTVRip]
  • Mylene Farmer / Bleu Noir [2011, Pop, HDTVRip]
  • Информация
    Посетители, находящиеся в группе Гости, не могут оставлять комментарии к данной публикации.