вход на сайт

Имя пользователя :
Пароль :

Восстановление пароля Регистрация
Три мушкетера (Сергей Жигунов, приключения, 2013) [BDRip-AVC, Не требуется]
Рейтинг:
(голосов: 1)



[img]{THEME}/images/logopost.png[/img]



Три мушкетера
«Всё за любовь!»

Год выпуска: 2013
Страна: Россия
Производство: ООО КиноПоиск
Жанр: приключения

Режиссёр: Сергей Жигунов
В ролях: Риналь Мухаметов, Юрий Чурсин, Алексей Макаров, Павел Баршак, Филипп Янковский, Мария Миронова, Константин Лавроненко, Василий Лановой, Александр Лыков, Алексей Воробьёв

Перевод: Не требуется
Субтитры: нет

Описание: «Три мушкетера» — это история о юном гасконце Д’Артаньяне, который, не познав всех радостей любви, оказывается втянут в водоворот политических интриг королевского двора Людовика XIII. В роте королевских мушкетеров Де Тревиля он находит себе верных друзей Атоса, Портоса и Арамиса. Мушкетеры настолько поражены кипучей энергией гасконца и его умением находить неприятности, что принимают самое живое участие не только в многочисленных стычках с гвардейцами кардинала, но и в личной судьбе Д’Артаньяна.

Благодаря друзьям Д’Артаньян находит свою первую любовь — Констанцию Бонасье и ввязывается в опаснейшую историю с подвесками Королевы. Тонкий и дальновидный политик кардинал Ришелье и его подручные Рошфор и Миледи обретают в лице Д’Артаньяна опаснейшего врага. Во имя любви он готов на самые отчаянные подвиги. На пути Д’Артаньяна немало опасных соблазнов и искушений. Но он их все преодолеет, не предав своей дружбы и любви!премьера (мир):14 ноября 2013
премьера (РФ):14 ноября 2013, «Каропрокат»

Качество: BDRip-AVC
Продолжительность: 02:03:30

Формат: MKV
Видео кодек: H.264
Аудио кодек: AC3
Видео: 1024x576 (16:9), 23.976 fps, H.264 ~3 500 kbps avg, 0.247 bit/pixel
Аудио: 48 kHz, AC3, 6 ch, ~448 kbps avg

Media Info ▼Формат : Matroska
Версия формата : Version 2
Размер файла : 3,41 Гбайт
Продолжительность : 2 ч. 3 м.
Общий поток : 3949 Кбит/сек
Название фильма : Три мушкетера.2013.Rip by: ollan
Дата кодирования : UTC 2014-01-12 05:41:57
Программа кодирования : mkvmerge v5.6.0 (Kenya Kane) built on May 27 2012 16:44:04
Библиотека кодирования : libebml v1.2.3 + libmatroska v1.3.0

Видео
Идентификатор : 1
Формат : AVC
Формат/Информация : Advanced Video Codec
Профиль формата : [email protected]
Параметр CABAC формата : Да
Параметр ReFrames формата : 9 кадров
Идентификатор кодека : V_MPEG4/ISO/AVC
Продолжительность : 2 ч. 3 м.
Битрейт : 3500 Кбит/сек
Ширина : 1024 пикселя
Высота : 576 пикселей
Соотношение сторон : 16:9
Режим частоты кадров : Постоянный
Частота кадров : 24,000 кадра/сек
Цветовое пространство : YUV
Субдискретизация насыщенности : 4:2:0
Битовая глубина : 8 бит
Тип развёртки : Прогрессивная
Бит/(Пиксели*Кадры) : 0.247
Размер потока : 2,95 Гбайт (87%)
Библиотека кодирования : x264 core 125 r2200 999b753
Настройки программы : cabac=1 / ref=9 / deblock=1:-2:-2 / analyse=0x3:0x133 / me=umh / subme=11 / psy=1 / psy_rd=1.00:0.10 / mixed_ref=1 / me_range=32 / chroma_me=1 / trellis=2 / 8x8dct=1 / cqm=0 / deadzone=21,11 / fast_pskip=0 / chroma_qp_offset=-3 / threads=12 / lookahead_threads=2 / sliced_threads=0 / nr=0 / decimate=0 / interlaced=0 / bluray_compat=0 / constrained_intra=0 / bframes=9 / b_pyramid=2 / b_adapt=2 / b_bias=0 / direct=3 / weightb=1 / open_gop=0 / weightp=2 / keyint=240 / keyint_min=23 / scenecut=40 / intra_refresh=0 / rc_lookahead=40 / rc=2pass / mbtree=1 / bitrate=3500 / ratetol=1.0 / qcomp=0.60 / qpmin=0 / qpmax=69 / qpstep=4 / cplxblur=20.0 / qblur=0.5 / vbv_maxrate=50000 / vbv_bufsize=62500 / nal_hrd=none / ip_ratio=1.40 / aq=1:1.00
Язык : Russian
Default : Да
Forced : Нет

Аудио
Идентификатор : 2
Формат : AC-3
Формат/Информация : Audio Coding 3
Расширение режима : CM (complete main)
Параметр Endianness формата : Big
Идентификатор кодека : A_AC3
Продолжительность : 2 ч. 3 м.
Вид битрейта : Постоянный
Битрейт : 448 Кбит/сек
Каналы : 6 каналов
Расположение каналов : Front: L C R, Side: L R, LFE
Частота : 48,0 КГц
Битовая глубина : 16 бит
Метод сжатия : С потерями
Размер потока : 396 Мба
5bee41359fc9b0b95f658eeaf67a0a2dfd4c3245Три мушкетера (Сергей Жигунов, приключения, 2013) [BDRip-AVC, Не требуется] Три мушкетера (Сергей Жигунов, приключения, 2013) [BDRip-AVC, Не требуется] " />

Аплоадер: Админ, дата: 12-01-2014, 14:41, торрент скачан: 359 раз

Понравилась раздача? Посмотрите эти:
  • Три мушкетера // Эпизоды с 1 по 10 (из 10) (Приключения, экранизация, 2013) ...
  • Три мушкетера // Эпизоды с 1 по 10 (из 10) (Приключения, экранизация, 2013) ...
  • Три мушкетера ( Сергей Жигунов, Приключения, 2013) [HDRip, Не требуется]
  • Три мушкетера ( Сергей Жигунов, Приключения, 2013) [HDRip, Не требуется]
  • Три мушкетера (Сергей Жигунов, Приключения, 2013) [HDRip, Не требуется]
  • Три мушкетера (Сергей Жигунов, Приключения, 2013) [BDRip 720p, Не требуется ...
  • Три мушкетера (Сергей Жигунов, Приключения, 2013) [HDRip-AVC, Не требуется] ...
  • Одноклассники 2 / Grown Ups 2 (Деннис Дуган, комедия, 2013) [BDRip 1080p, Д ...
  • Погнали! / Getaway (Кортни Соломон, боевик, криминал, 2013) [BDRip 1080p, П ...
  • Три мушкетера ( Сергей Жигунов, Приключения, 2013) [DVDRip, Не требуется]
  • Три мушкетера ( Сергей Жигунов, Приключения, 2013) [DVDRip, Не требуется]
  • Околофутбола (Антон Борматов, драма, криминал, 2013) [BDRip 720p, Не требуе ...
  • Мальчишник: Часть III / The Hangover Part III (Тодд Филлипс, комедия, 2013) ...
  • Иллюзия обмана / Now You See Me [Extended Cut] (Луи Летерье, триллер, крими ...
  • Интимные места (Наталья Меркулова, Алексей Чупов, драма, мелодрама, 2013) [ ...
  • Д`Артаньян и три мушкетера (3 серии) (Георгий Юнгвальд-Хилькевич, мюзикл, п ...
  • Заклятие / The Conjuring (Джеймс Ван, ужасы, триллер, 2013) [BDRip 720р, Ду ...
  • Заклятие / The Conjuring (Джеймс Ван, ужасы, триллер, 2013) [BDRip 1080p, Д ...
  • Поймай толстуху, если сможешь / Identity Thief [Theatrical Cut] (Сет Гордон ...
  • Даю год / I Give It a Year (Дэн Мазер, мелодрама, комедия, 2012) [BDRip-AVC ...
  • Суррогат / The Sessions (Бен Луин, Драма, 2012) [BDRip-AVC, Профессиональны ...
  • Чемпионат Англии 2012-2013 / 25-й тур / Обзор / Суббота / BBC Sport [2013 г ...
  • Эд Вуд / Ed Wood (Тим Бёртон, драма, комедия, биография, 1994) [BDRip-AVC, ...
  • Любовь с акцентом (Резо Гигинеишвили, Комедия, приключения, 2012) [BDRip-AV ...
  • 1812: Уланская баллада (Олег Фесенко, Приключения, 2012) [BDRip-AVC, Не тре ...
  • Информация
    Посетители, находящиеся в группе Гости, не могут оставлять комментарии к данной публикации.