вход на сайт

Имя пользователя :
Пароль :

Восстановление пароля Регистрация
Аэротачки / Sky Force 3D (Тони Тэнг, мультфильм, 2012) [DVDRip, Дублированный]
Рейтинг:
(голосов: 1)



[img]{THEME}/images/logopost.png[/img]



Аэротачки / Sky Force 3D

Год выпуска: 2012
Страна: США, Гонконг
Производство: Limelight Animation Studios, T-Films
Жанр: мультфильм

Режиссёр: Тони Тэнг
В ролях:Джон С. Флинн, Хезер Гордон, Аарон Кребс

Перевод: Дублированный
Субтитры: нет

Описание: В большой и дружной команде самолетов маленький Тинни никак не может добиться признания. Чтобы в глазах окружающих стать настоящим героем, он, наперекор Капитану Бену, отправляется в одиночку спасать жителей города от пожара. Жизнь Тинни оказывается под угрозой, но его спасает Капитан Бен ценой своей жизни. Чувство вины и страх снова подняться в воздух заставляет Тинни покинуть команду и отправиться работать на шахту. И только жуткий пожар, вспыхнувший в шахте, разбудил в Тинни старые инстинкты. Спасая своих друзей, он осознает свое истинное призвание и возвращается к команде пожарных самолетов, преодолевая свой страх высоты ради безопасности родного города.



Качество: DVDRip | Сэмпл
Продолжительность: 01:17:40

Формат: AVI
Видео кодек: XviD
Аудио кодек: AС3
Видео: 720x400(16:9), 25.000 fps, AVI ~ 2 066 kbs avg,0.287 bit/p
Аудио: 48.0 KHz,AC3, 6 ch, 448 Кбит/с

Дата премьеры (мир): 22 апреля 2012
Дата премьеры (РФ): 11 октября 2012, «Top Film Distribution», «All Media»

"Media Info" ▼
TextGeneral
Format : AVI
Format/Info : Audio Video Interleave
File size : 1.37 GiB
Duration : 1h 17mn
Overall bit rate : 2 524 Kbps
Movie name : Aerotachki.2012.D.DVDRip.IRONCLUB
Director : IRONCLUB
Writing application : VirtualDubMod 1.5.10.3 | www.virtualdub-fr.org || (build 2550/release)
Original source form/Name : Cartoon
Copyright : http://ironclub.tv/
Video #0
ID : 0
Format : MPEG-4 Visual
Format profile : Advanced [email protected]
Format settings, BVOP : 2
Format settings, QPel : No
Format settings, GMC : No warppoints
Format settings, Matrix : Custom
Codec ID : XVID
Codec ID/Hint : XviD
Duration : 1h 17mn
Bit rate : 2 066 Kbps
Width : 720 pixels
Height : 400 pixels
Display aspect ratio : 16:9
Frame rate : 25.000 fps
Color space : YUV
Chroma subsampling : 4:2:0
Bit depth : 8 bits
Scan type : Progressive
Compression mode : Lossy
Bits/(Pixel*Frame) : 0.287
Stream size : 1.12 GiB (82%)
Writing library : XviD 1.2.1 (UTC 2008-12-04)
Audio #1
ID : 1
Format : AC-3
Format/Info : Audio Coding 3
Mode extension : CM (complete main)
Format settings, Endianness : Big
Codec ID : 2000
Duration : 1h 17mn
Bit rate mode : Constant
Bit rate : 448 Kbps
Channel(s) : 6 channels
Channel positions : Front: L C R, Side: L R, LFE
Sampling rate : 48.0 KHz
Bit depth : 16 bits
Compression mode : Lossy
Stream size : 249 MiB (18%)
Alignment : Split accross interleaves
Interleave, duration : 40 ms (1.00 video frame)
Interleave, preload duration : 500 ms


b5642d50c47998aef98e00829d3c4c6fd673f3d4Аэротачки / Sky Force 3D (Тони Тэнг, мультфильм, 2012) [DVDRip, Дублированный] Аэротачки / Sky Force 3D (Тони Тэнг, мультфильм, 2012) [DVDRip, Дублированный] " />

Аплоадер: Админ, дата: 4-12-2012, 03:28, торрент скачан: 359 раз

Понравилась раздача? Посмотрите эти:
  • Блэки летит на Луну / Black to the Moon (Франсис Нилсен, мультфильм, комеди ...
  • Мои герои / Mes heros (Эрик Беснард, комедия, 2012) [HDRip, Профессиональны ...
  • Аэротачки / Sky Force 3D (Тони Тэнг, мультфильм, 2012) [HDRip, Дублированны ...
  • Аэротачки / Sky Force 3D (Тони Тэнг, мультфильм, 2012) [HDRip, Дублированны ...
  • Мужество / Wymyk (Грег Зглински, драма, 2011) [DVDRip, Любительский (одного ...
  • Чемпионат Италии 2012-13 / 36-й тур / Рома — Кьево / НТВ+ [07.05.2013, SD, ...
  • Марко Макако / Marco Macaco (Жан Рабек, мультфильм, комедия, семейный, 2012 ...
  • Плохая актриса / Bad Actress (Роберт Ли Кинг, комедия, 2011) [DVDRip, Профе ...
  • Дом ветра (Вячеслав Златопольский, Драма, 2011) [DVDRip, Не требуется]
  • Захват / Carjacked (Джон Бонито, триллер, 2011)[BDRip, Профессиональный (мн ...
  • Аэротачки / Sky Force 3D (Тони Тэнг, мультфильм, 2012) [DVDRip-AVC, Дубляж ...
  • Чемпионат Европы 2012 / Группа C / 1-й тур / Ирландия — Хорватия / ТРК Футб ...
  • Чемпионат Европы 2012 / Группа D / 1-й тур / Украина - Швеция / Спорт 1 [11 ...
  • Олимпиада 2012 / Мужчины / Группа D / 1-й тур / Испания — Япония / НТВ+ [Фу ...
  • Олимпиада 2012 / Футбол / Мужчины / Группа A / 3-й тур / Великобритания - У ...
  • Tank Feat. T.I. & Kris Stephens / Compliments [2012, RnB,Hip-Hop, HDRip]
  • Три богатыря на дальних берегах (Константин Феоктистов, мультфильм, комедия ...
  • Аэротачки / Sky Force 3D (Тони Тэнг, мультфильм, 2012) [DVD5 R5, Дубляж]
  • Влюбленные (Валерий Бебко, Комедия, 2011) [DVDRip, Оригинал]
  • Супершторм в Сиэтле / Seattle Superstorm (Джейсон Бурк, фантастика, боевик ...
  • Олимпиада 2012 / Женщины, Мужчины / Плавание / Квалификация / НТВ+ [30.07.2 ...
  • Инкубус / Inkubus (Гленн Чиано, Ужасы, 2011) [DVDRip, Профессиональный (мно ...
  • Кто хочет стать Пиратом? / The Pirates! So You Want To Be A Pirate! (Питер ...
  • Аэротачки / Sky Force 3D (Тони Тэнг, мультфильм, 2012) [DVDRip, Профессиона ...
  • Табу / Tabu (Мигель Гомеш, Драма, мелодрама, 2012) [DVDRip, Профессиональны ...
  • Информация
    Посетители, находящиеся в группе Гости, не могут оставлять комментарии к данной публикации.