вход на сайт

Имя пользователя :
Пароль :

Восстановление пароля Регистрация
Петля времени / Looper (Райан Джонсон, фантастика, боевик, триллер, 2012) [DVDRip,Профессиональный (дублированный)]
Рейтинг:
(голосов: 1)



[img]{THEME}/images/logopost.png[/img]



Петля времени / Looper

Год выпуска: 2012
Страна: США, Китай
Производство: DMG Entertainment, Endgame Entertainment, FilmDistrict
Жанр: фантастика, боевик, триллер

Режиссёр: Райан Джонсон
В ролях:Джозеф Гордон-Левитт, Брюс Уиллис, Эмили Блант, Джефф Дэниелс, Ной Сеган, Пирс Гэнон, Пол Дано, Пайпер Перабо, Квинг Ксу, Трейси Томс

Перевод: Профессиональный (дублированный)
Субтитры: нет

Описание: В недалеком будущем, где стали возможны путешествия во времени, некая корпорация убирает нежелательных людей, отправляя их в прошлое в пластиковых пакетах. Задача принимающей стороны — убить жертву, стерев тем самым несчастного из истории. Все идет гладко до тех пор, пока главный герой не распаковывает очередной пакет, обнаруживая в нем… самого себя из будущего.



Качество: DVDRip | Сэмпл
Продолжительность: 01:53:45

Формат: AVI
Видео кодек: XviD
Аудио кодек: MP3
Видео: 688x288(2.40:1), 25.000 fps, AVI ~ 778 kbs avg, 0.157 bit/p
Аудио: 48.0 KHz,MPEG Layer 3, 2 ch, 128 Кбит/с

Дата премьеры (мир): 6 сентября 2012
Дата премьеры (РФ): 27 сентября 2012, «Top Film Distribution»

"Media Info" ▼
TextGeneral
Format : AVI
Format/Info : Audio Video Interleave
File size : 745 MiB
Duration : 1h 53mn
Overall bit rate : 916 Kbps
Writing application : VirtualDubMod 1.5.10.2 (build 2540/release)
Writing library : VirtualDubMod build 2540/release
Video #0
ID : 0
Format : MPEG-4 Visual
Format profile : Advanced [email protected]
Format settings, BVOP : 1
Format settings, QPel : No
Format settings, GMC : No warppoints
Format settings, Matrix : Custom
Codec ID : XVID
Codec ID/Hint : XviD
Duration : 1h 53mn
Bit rate : 778 Kbps
Width : 688 pixels
Height : 288 pixels
Display aspect ratio : 2.40:1
Frame rate : 25.000 fps
Color space : YUV
Chroma subsampling : 4:2:0
Bit depth : 8 bits
Scan type : Progressive
Compression mode : Lossy
Bits/(Pixel*Frame) : 0.157
Stream size : 633 MiB (85%)
Writing library : XviD 65
Audio #1
ID : 1
Format : MPEG Audio
Format version : Version 1
Format profile : Layer 3
Mode : Joint stereo
Mode extension : MS Stereo
Codec ID : 55
Codec ID/Hint : MP3
Duration : 1h 53mn
Bit rate mode : Constant
Bit rate : 128 Kbps
Channel(s) : 2 channels
Sampling rate : 48.0 KHz
Compression mode : Lossy
Stream size : 104 MiB (14%)
Alignment : Aligned on interleaves
Interleave, duration : 40 ms (1.00 video frame)
Interleave, preload duration : 504 ms


1712ab17208f212551978b1c9a4f874b34c04253Петля времени / Looper (Райан Джонсон, фантастика, боевик, триллер, 2012) [DVDRip,Профессиональный (дублированный)] Петля времени / Looper (Райан Джонсон, фантастика, боевик, триллер, 2012) [DVDRip,Профессиональный (дублированный)] " />

Аплоадер: Админ, дата: 29-11-2012, 23:34, торрент скачан: 359 раз

Понравилась раздача? Посмотрите эти:
  • Петля времени / Looper (Райан Джонсон, фантастика, боевик, триллер, кримина ...
  • Петля времени / Looper (Райан Джонсон, фантастика, боевик, триллер, 2012) [ ...
  • Петля времени / Looper (Райан Джонсон, Фантастика, боевик, триллер, 2012) [ ...
  • Петля времени / Looper (Райан Джонсон, Фантастика, боевик, триллер, 2012) [ ...
  • Петля времени / Looper (Райан Джонсон, Фантастика, боевик, триллер, 2012) [ ...
  • Петля времени / Looper (Райан Джонсон, Фантастика, боевик, триллер, 2012) [ ...
  • Петля времени / Looper (Райан Джонсон, фантастика, боевик, триллер, 2012) [ ...
  • Петля времени / Looper (Райан Джонсон, Фантастика, боевик, триллер, 2012) [ ...
  • Петля времени / Looper (Райан Джонсон, Фантастика, боевик, триллер, 2012) [ ...
  • [Phone, iPod] Петля времени / Looper (Райан Джонсон, фантастика, боевик, тр ...
  • Петля времени / Looper (Райан Джонсон, Фантастика, боевик, триллер, 2012) [ ...
  • Петля времени / Looper (Райан Джонсон, Фантастика, боевик, триллер, 2012) [ ...
  • Петля времени / Looper (Райан Джонсон, фантастика, боевик, триллер, 2012) [ ...
  • Петля времени / Looper (Райан Джонсон, Фантастика, боевик, триллер, 2012) [ ...
  • Петля времени / Looper (Райан Джонсон, Фантастика, Боевик, Триллер, 2012) [ ...
  • Петля времени / Looper (Райан Джонсон, Фантастика, Боевик, Триллер, 2012) [ ...
  • [EN] Петля времени / Looper (Райан Джонсон, фантастика, боевик, триллер, 20 ...
  • Петля времени / Looper (Райан Джонсон, Фантастика, Боевик, Триллер, 2012) [ ...
  • Петля времени / Looper (Райан Джонсон, фантастика, боевик, триллер, 2012) [ ...
  • Петля времени / Looper (Райан Джонсон, фантастика, боевик, триллер, 2012) [ ...
  • Информация
    Посетители, находящиеся в группе Гости, не могут оставлять комментарии к данной публикации.