вход на сайт

Имя пользователя :
Пароль :

Восстановление пароля Регистрация
Москва 2017 / Branded (Джейми Брэдшоу, Александр Дулерайн, фантастика, триллер, 2012) [НDRip, Дублированный]
Рейтинг:
(голосов: 1)



[img]{THEME}/images/logopost.png[/img]



Москва 2017 / Branded
«Город будет захвачен»
Год выпуска: 2012
Страна: США
Производство: Mirumir, TNT
Жанр: фантастика, триллер
Режиссёр: Джейми Брэдшоу, Александр Дулерайн
В ролях:Эд Стоппард, Джефри Тэмбор, Лили Собески, Джон Ласковски, Макс фон Сюдов, Ингеборга Дапкунайте, Андрей Кайков, Атанас Сребрев, Эмма Стикгольд, Любомир Йончев
Перевод: Дублированный
Субтитры: Нет
ОписаниеДействие происходит в недалеком будущем. Главный герой, Михаил Галкин, замечает, как вокруг накапливаются перемены… Происходят события, казалось бы, не связанные между собой… Он обнаруживает глобальный заговор и понимает, что за этим заговором стоят скрытые силы, контролирующие наш мир. И эти силы не принадлежат человеческой цивилизации. Герой начинает против них войну. Войну, которую нельзя проиграть.



Качество: НDRip
Продолжительность:01:46:24
Формат: AVI
Видео кодек: XviD
Аудио кодек:АС3
Видео: 720x304 (2.37:1), 24 fps, XviD build 50 ~1504 kbps avg, 0.29 bit/pixel
Аудио :48 kHz, AC3 Dolby Digital, 3/2 (L,C,R,l,r) + LFE ch, ~448 kbps


премьера (мир)7 сентября 2012
премьера (РФ)7 сентября 2012, «Каропрокат»
релиз на Blu-Ray 16 октября 2012, «Флагман-Трейд»
релиз на DVD 16 октября 2012, «Флагман-Трейд»
"MediaInfo:" ▼TextD:КиноM07kWa.2.0.1.7.2012.D.HDRip.1.46.Gb.avi
General
Complete name : D:КиноM07kWa.2.0.1.7.2012.D.HDRip.1.46.Gb.avi
Format : AVI
Format/Info : Audio Video Interleave
File size : 1.46 GiB
Duration : 1h 46mn
Overall bit rate : 1 962 Kbps
Writing application : VirtualDubMod 1.5.10.2 (build 2540/release)
Writing library : VirtualDubMod build 2540/release
Video #0
ID : 0
Format : MPEG-4 Visual
Format profile : Advanced [email protected]
Format settings, BVOP : Yes
Format settings, QPel : No
Format settings, GMC : No warppoints
Format settings, Matrix : Custom
Codec ID : XVID
Codec ID/Hint : XviD
Duration : 1h 46mn
Bit rate : 1 505 Kbps
Width : 720 pixels
Height : 304 pixels
Display aspect ratio : 2.35:1
Frame rate : 24.000 fps
Color space : YUV
Chroma subsampling : 4:2:0
Bit depth : 8 bits
Scan type : Progressive
Compression mode : Lossy
Bits/(Pixel*Frame) : 0.286
Stream size : 1.12 GiB (77%)
Writing library : XviD 1.2.1 (UTC 2008-12-04)
Audio #1
ID : 1
Format : AC-3
Format/Info : Audio Coding 3
Mode extension : CM (complete main)
Codec ID : 2000
Duration : 1h 46mn
Bit rate mode : Constant
Bit rate : 448 Kbps
Channel(s) : 6 channels
Channel positions : Front: L C R, Side: L R, LFE
Sampling rate : 48.0 KHz
Bit depth : 16 bits
Compression mode : Lossy
Stream size : 341 MiB (23%)
Alignment : Split accross interleaves
Interleave, duration : 42 ms (1.00 video frame)
Interleave, preload duration : 500 msСтол заказов POWER | Отзывы | Вступление в POWER


5a4190ce024f4ac1854c207742968961984f11fcМосква 2017 / Branded (Джейми Брэдшоу, Александр Дулерайн, фантастика, триллер, 2012) [НDRip, Дублированный] Москва 2017 / Branded (Джейми Брэдшоу, Александр Дулерайн, фантастика, триллер, 2012) [НDRip, Дублированный] " />

Аплоадер: Админ, дата: 17-10-2012, 10:19, торрент скачан: 359 раз

Понравилась раздача? Посмотрите эти:
  • Верное дельце / Une pure affaire (Александр Коффре, Боевик, Комедия, Кримин ...
  • Мужество / Wymyk (Грег Зглински, драма, 2011) [DVDRip, Любительский (одного ...
  • Ночь тамплиера / Night of the Templar (Пол Сэмпсон, Ужасы, фантастика, боев ...
  • Звук моего голоса / Sound of My Voice (Зал Батманглидж, триллер, драма, 201 ...
  • Слепой поворот / Blind Turn (Роберт Орр, Триллер, драма, детектив, 2012) [W ...
  • 23:59 / 23:59 (Гилберт Чан, Ужасы, 2011) [HDRip, Любительский (одноголосый ...
  • Газетчик / The Paperboy (Ли Дэниелс, триллер, 2012) [HDRip, Дублированный]
  • Москва 2017 / Branded (Джейми Брэдшоу, Александр Дулерайн, фантастика, трил ...
  • Захват / Carjacked (Джон Бонито, триллер, 2011)[BDRip, Профессиональный (мн ...
  • Москва 2017 / Branded (Джейми Брэдшоу, Александр Дулерайн, фантастика, трил ...
  • Чемпионат Европы 2012 / Группа C / 1-й тур / Ирландия — Хорватия / ТРК Футб ...
  • Чемпионат Европы 2012 / Группа D / 1-й тур / Украина - Швеция / Спорт 1 [11 ...
  • Олимпиада 2012 / Мужчины / Группа D / 1-й тур / Испания — Япония / НТВ+ [Фу ...
  • Tank Feat. T.I. & Kris Stephens / Compliments [2012, RnB,Hip-Hop, HDRip]
  • Супершторм в Сиэтле / Seattle Superstorm (Джейсон Бурк, фантастика, боевик ...
  • Олимпиада 2012 / Женщины, Мужчины / Плавание / Квалификация / НТВ+ [30.07.2 ...
  • Москва 2017 / Branded (Джейми Брэдшоу, Александр Дулерайн, фантастика, трил ...
  • Москва 2017 / Branded (Джейми Брэдшоу, Александр Дулерайн, фантастика, трил ...
  • Москва 2017 / Branded (Джейми Брэдшоу, Александр Дулерайн, фантастика, трил ...
  • Москва 2017 / Branded (Джейми Брэдшоу, Александр Дулерайн, фантастика, трил ...
  • Информация
    Посетители, находящиеся в группе Гости, не могут оставлять комментарии к данной публикации.