вход на сайт

Имя пользователя :
Пароль :

Восстановление пароля Регистрация
Москва 2017 / Branded (Джейми Брэдшоу, Александр Дулерайн, фантастика, триллер, 2012) [DVDRip, Дубляж + Оригинал (ENG)]
Рейтинг:
(голосов: 1)



[img]{THEME}/images/logopost.png[/img]



Москва 2017 / Branded
«Город будет захвачен»


Год выпуска: 2012
Страна: США
Производство: Mirumir, ТНТ
Жанр: фантастика, триллер

Режиссёр: Джейми Брэдшоу, Александр Дулерайн
В ролях: Эд Стоппард, Джефри Тэмбор, Лили Собески, Джон Ласковски, Макс фон Сюдов, Ингеборга Дапкунайте, Андрей Кайков, Атанас Сребрев, Эмма Стикгольд, Любомир Йончев

Перевод: Дубляж + Оригинал (Английский)
Субтитры: Отсутствуют

Описание: Действие происходит в недалеком будущем. Главный герой, Михаил Галкин, замечает, как вокруг накапливаются перемены… Происходят события, казалось бы, не связанные между собой… Он обнаруживает глобальный заговор и понимает, что за этим заговором стоят скрытые силы, контролирующие наш мир. И эти силы не принадлежат человеческой цивилизации. Герой начинает против них войну. Войну, которую нельзя проиграть. Дата премьеры (мир): 7 сентября 2012
Дата премьеры (РФ): 7 сентября 2012, «Каропрокат»
Релиз на DVD: 16 октября 2012, «Флагман-Трейд»
Релиз на Blu-Ray: 16 октября 2012, «Флагман-Трейд»


Качество: DVDRip | сэмпл
Продолжительность: 01:42:08

Формат: AVI
Видео кодек: XviD
Аудио кодек: AC3
Видео: 720x304 (2.35:1), 25 fps, XviD MPEG-4 ~1962 kbps avg, 0.35 bit/pixel
Аудио №1: 48 kHz, AC3 Dolby Digital, 6 ch, ~448 kbps | RUS|
Аудио №2: 48 kHz, AC3 Dolby Digital, 6 ch, ~448 kbps | ENG|


"Mediainfo" ▼Text
General
Complete name : D: Moskva.2017.2012.D.DVDRip.avi
Format : AVI
Format/Info : Audio Video Interleave
Format profile : OpenDML
File size : 2.05 GiB
Duration : 1h 42mn
Overall bit rate : 2 878 Kbps
Movie name : Moskva.2017.2012.D.DVDRip.IRONCLUB
Director : IRONCLUB
Genre : Action | Drama | Mystery
Writing application : VirtualDubModRus 1.5.10.2 (build 2542/release)
Original source form/Name : Movie
Copyright : http://ironclub.tv/
Video #0
ID : 0
Format : MPEG-4 Visual
Format profile : Advanced [email protected]
Format settings, BVOP : 2
Format settings, QPel : No
Format settings, GMC : No warppoints
Format settings, Matrix : Custom
Codec ID : XVID
Codec ID/Hint : XviD
Duration : 1h 42mn
Bit rate : 1 962 Kbps
Width : 720 pixels
Height : 304 pixels
Display aspect ratio : 2.35:1
Frame rate : 25.000 fps
Color space : YUV
Chroma subsampling : 4:2:0
Bit depth : 8 bits
Scan type : Progressive
Compression mode : Lossy
Bits/(Pixel*Frame) : 0.359
Stream size : 1.40 GiB (68%)
Writing library : XviD 1.2.1 (UTC 2008-12-04)
Audio #1
ID : 1
Format : AC-3
Format/Info : Audio Coding 3
Mode extension : CM (complete main)
Format settings, Endianness : Big
Codec ID : 2000
Duration : 1h 42mn
Bit rate mode : Constant
Bit rate : 448 Kbps
Channel(s) : 6 channels
Channel positions : Front: L C R, Side: L R, LFE
Sampling rate : 48.0 KHz
Bit depth : 16 bits
Compression mode : Lossy
Stream size : 327 MiB (16%)
Alignment : Split accross interleaves
Interleave,
898793551be5c6c496e61c08b9ccd74be67b1602Москва 2017 / Branded (Джейми Брэдшоу, Александр Дулерайн, фантастика, триллер, 2012) [DVDRip, Дубляж + Оригинал (ENG)] Москва 2017 / Branded (Джейми Брэдшоу, Александр Дулерайн, фантастика, триллер, 2012) [DVDRip, Дубляж + Оригинал (ENG)] " />

Аплоадер: Админ, дата: 13-10-2012, 03:27, торрент скачан: 359 раз

Понравилась раздача? Посмотрите эти:
  • Готовые на всё / Workers - Pronti a tutto (Лоренцо Виньоло, Комедия, 2012) ...
  • Безумный Макс 3: Под куполом грома / Mad Max Beyond Thunderdome (Джордж Мил ...
  • Мужество / Wymyk (Грег Зглински, драма, 2011) [DVDRip, Любительский (одного ...
  • Неудержимый / Bullet to the Head (Уолтер Хилл, Боевик, триллер, криминал, 2 ...
  • Поймай толстуху, если сможешь [Театральная версия] / Identity Thief [Theatr ...
  • Звук моего голоса / Sound of My Voice (Зал Батманглидж, триллер, драма, 201 ...
  • Слепой поворот / Blind Turn (Роберт Орр, Триллер, драма, детектив, 2012) [W ...
  • Марко Макако / Marco Macaco (Жан Рабек, мультфильм, комедия, семейный, 2012 ...
  • Плохая актриса / Bad Actress (Роберт Ли Кинг, комедия, 2011) [DVDRip, Профе ...
  • Дом ветра (Вячеслав Златопольский, Драма, 2011) [DVDRip, Не требуется]
  • Москва 2017 / Branded (Джейми Брэдшоу, Александр Дулерайн, фантастика, трил ...
  • Супер циклон / Super Cyclone (Лиз Адамс / Liz Adams, боевик, 2012) [HDRip, ...
  • Захват / Carjacked (Джон Бонито, триллер, 2011)[BDRip, Профессиональный (мн ...
  • Москва 2017 / Branded (Джейми Брэдшоу, Александр Дулерайн, фантастика, трил ...
  • Чемпионат Европы 2012 / Группа C / 1-й тур / Ирландия — Хорватия / ТРК Футб ...
  • Tank Feat. T.I. & Kris Stephens / Compliments [2012, RnB,Hip-Hop, HDRip]
  • Танец Дели (Иван Вырыпаев, драма, 2012) [DVDRip, Не требуется]
  • Влюбленные (Валерий Бебко, Комедия, 2011) [DVDRip, Оригинал]
  • Супершторм в Сиэтле / Seattle Superstorm (Джейсон Бурк, фантастика, боевик ...
  • Олимпиада 2012 / Женщины, Мужчины / Плавание / Квалификация / НТВ+ [30.07.2 ...
  • Москва 2017 / Branded (Джейми Брэдшоу, Александр Дулерайн, фантастика, трил ...
  • Москва 2017 / Branded (Джейми Брэдшоу, Александр Дулерайн, фантастика, трил ...
  • Москва 2017 / Branded (Джейми Брэдшоу, Александр Дулерайн, фантастика, трил ...
  • Москва 2017 / Branded (Джейми Брэдшоу, Александр Дулерайн, фантастика, трил ...
  • Аэротачки / Sky Force 3D (Тони Тэнг, мультфильм, 2012) [DVDRip, Дублированн ...
  • Информация
    Посетители, находящиеся в группе Гости, не могут оставлять комментарии к данной публикации.