вход на сайт

Имя пользователя :
Пароль :

Восстановление пароля Регистрация
Присутствие великолепия / Magnifica presenza (Ферзан Озпетек, драма, 2012) [HDRip, Профессиональный (многоголосый, закадровый)]
Рейтинг:
(голосов: 1)



[img]{THEME}/images/logopost.png[/img]



Присутствие великолепия / Magnifica presenza

Год выпуска: 2012
Страна: Италия
Производство: Фанданго, Faros Film, Intesa San Paolo
Жанр: Драма

Режиссёр: Ферзан Озпетек
В ролях: Элио Джермано, Паола Миначчони, Беппе Фиорелло, Маргерита Буй, Бьянка Наппи, Массимилиано Галло, Алессандро Ройа, Джанлука Гори, Платинетт, Виттория Пуччини

Перевод: Профессиональный (многоголосый, закадровый)
Субтитры: Нет

Описание: Пьетро одержим идеей стать актером и ради осуществления своей мечты переезжает в Рим. В его жизни появляются новые люди. Вскоре в доме начинают происходить странные вещи: мебель и другие предметы двигаются сами по себе. Жизнь Пьетро превращается в настоящий спектакль. Будучи уверенным, что в квартире поселились призраки, герой с головой погружается в самое необычное приключение в своей жизни.

Премьера (мир): 16 марта 2012
Премьера (РФ): 13 сентября 2012


Качество: HDRip
Продолжительность: 01:46:02

Формат: AVI
Видео кодек: XviD
Аудио кодек: MP3
Видео: 640x272 (2.35:1), 23.976 fps, XviD build 50 ~789 kbps avg, 0.19 bit/pixel
Аудио: 48 kHz, MPEG Layer 3, 2 ch, ~128.00 kbps avg
MediaInfo ▼TextGeneral
Complete name : C:Prisytstvie.velikolepiya.2012.P.HDRip.700MB.avi
Format : AVI
Format/Info : Audio Video Interleave
File size : 703 MiB
Duration : 1h 46mn
Overall bit rate : 927 Kbps
Writing application : VirtualDubMod 1.5.10.2 (build 2540/release)
Writing library : VirtualDubMod build 2540/release
Video #0
ID : 0
Format : MPEG-4 Visual
Format profile : Advanced [email protected]
Format settings, BVOP : 2
Format settings, QPel : No
Format settings, GMC : No warppoints
Format settings, Matrix : Default (H.263)
Codec ID : XVID
Codec ID/Hint : XviD
Duration : 1h 46mn
Bit rate : 789 Kbps
Width : 640 pixels
Height : 272 pixels
Display aspect ratio : 2.35:1
Frame rate : 23.976 fps
Color space : YUV
Chroma subsampling : 4:2:0
Bit depth : 8 bits
Scan type : Progressive
Compression mode : Lossy
Bits/(Pixel*Frame) : 0.189
Stream size : 599 MiB (85%)
Writing library : XviD 1.2.1 (UTC 2008-12-04)
Audio #1
ID : 1
Format : MPEG Audio
Format version : Version 1
Format profile : Layer 3
Mode : Joint stereo
Mode extension : MS Stereo
Codec ID : 55
Codec ID/Hint : MP3
Duration : 1h 46mn
Bit rate mode : Constant
Bit rate : 128 Kbps
Channel(s) : 2 channels
Sampling rate : 48.0 KHz
Compression mode : Lossy
Stream size : 97.1 MiB (14%)
Alignment : Aligned on interleaves
Interleave, duration : 42 ms (1.00 video frame)
Interleave, preload duration : 504 ms


Стол заказов POWER | Отзывы | Вступление в POWER


2ccc540f7b3141b9da62688f3e3e74bb28e0ebb0Присутствие великолепия / Magnifica presenza (Ферзан Озпетек, драма, 2012) [HDRip, Профессиональный (многоголосый, закадровый)] Присутствие великолепия / Magnifica presenza (Ферзан Озпетек, драма, 2012) [HDRip, Профессиональный (многоголосый, закадровый)] " />

Аплоадер: Админ, дата: 5-10-2012, 09:20, торрент скачан: 359 раз

Понравилась раздача? Посмотрите эти:
  • Погнали! / Getaway (Кортни Соломон, Боевик,Криминал, 2013) [HDRip, Професси ...
  • Посылка / The Package (Джесси Джонсон, боевик, 2013) [HDRip, Профессиональн ...
  • Присутствие Великолепия / Magnifica Presenza (Ферзан Озпетек, Драма, 2012) ...
  • Чемпионат Испании 2011-12 / 36-й тур / Реал Мадрид - Севилья / НТВ+ [Футбол ...
  • Чемпионат Европы 2012 / Группа C / 1-й тур / Ирландия — Хорватия / ТРК Футб ...
  • Чемпионат Европы 2012 / Группа D / 1-й тур / Украина - Швеция / Спорт 1 [11 ...
  • Олимпиада 2012 / Мужчины / Группа D / 1-й тур / Испания — Япония / НТВ+ [Фу ...
  • Олимпиада 2012 / Футбол / Мужчины / Группа A / 3-й тур / Великобритания - У ...
  • Tank Feat. T.I. & Kris Stephens / Compliments [2012, RnB,Hip-Hop, HDRip]
  • Неделя в NBA с В.Гомельским / НТВ+ [28.06.2011, SD, XviD, RU, SAT]
  • Чемпионат Англии 2011-2012 / Championship / 45-й Тур / Обзор Матчей / НТВ+ ...
  • Чемпионат Европы 2012 / Группа B / 1-й тур / Германия - Португалия / Спорт ...
  • NBA Finals 2012 / Sportscenter / В преддверии 3-ей игры / Viasat Sport [Бас ...
  • NBA Finals 2012 / Sportscenter / Четвертая игра под микроскопом / Viasat Sp ...
  • Замёрзший мир / 2012: Ice Age (Трэвис Форт, фантастика, боевик, 2011) [HDRi ...
  • Товарищеский матч 2012 / АмаЗулу (ЮАР) - Манчестер Юнайтед (Англия) / MU TV ...
  • Чемпионат России 2012-13 / 1-й тур / Мордовия - Локомотив / НТВ+ [Футбол, 2 ...
  • Олимпиада 2012 / Женщины, Мужчины / Плавание / Квалификация / НТВ+ [30.07.2 ...
  • Присутствие Великолепия / Magnifica Presenza (Ферзан Озпетек, Драма, 2012) ...
  • Ничего, кроме правды / Nothing But the Truth (Род Лури, триллер, драма, 200 ...
  • Информация
    Посетители, находящиеся в группе Гости, не могут оставлять комментарии к данной публикации.