вход на сайт

Имя пользователя :
Пароль :

Восстановление пароля Регистрация
Капитан Гром и Святой Грааль / El Capitán Trueno y el Santo Grial (Антонио Хернандез, Приключения, 2011) [HDRip, Любительский одноголосый - (zamez)]
Рейтинг:
(голосов: 1)



[img]{THEME}/images/logopost.png[/img]



Капитан Гром и Святой Грааль / El Capitán Trueno y el Santo Grial

Год выпуска: 2011
Страна: Испания
Производство: Maltes & Sorolla films
Жанр: Приключения

Режиссёр: Антонио Хернандез
В ролях: Серджо Перис-Менчета , Наташа Яровенко , Гэри Пикер , Роберто Альварес и другие

Перевод: Любительский одноголосый - (zamez)
Субтитры:Отсутствуют

Описание
Странствующий рыцарь капитан Гром находит в застенках крепости умирающего христианина по имени Хуан де Рибера, которому была доверена чрезвычайно важная миссия – вернуть в Испанию чашу Святого Грааля, украденную из тайников древнего ордена.
Вместе со своими друзьями Криспином и Голифом, а также принцессой викингов по имени Сигрид капитан Гром отправляется в Испанию, чтобы завершить дело, порученное Хуану.
Доп. информация
Премьеры ▼премьера (мир) 7 октября 2011

Рейтинг MPAA ▼
Детям до 12 лет просмотр не желателен
Mediainfo ▼TextОбщее
Полное имя : D:Captain.Thunder.2011.HDRip.1490.avi
Формат : AVI
Формат/Информация : Audio Video Interleave
Размер файла : 1,46 Гбайт
Продолжительность : 1 ч. 52 м.
Общий поток : 1855 Кбит/сек
Программа кодирования : VirtualDubMod 1.5.10.2 (build 2540/release)
Библиотека кодирования : VirtualDubMod build 2540/release

Видео
Идентификатор : 0
Формат : MPEG-4 Visual
Профиль формата : Advanced [email protected]
Параметр BVOP формата : 2
Параметр QPel формата : Нет
Параметр GMC формата : Без точки перехода
Параметр матрицы формата : Default (MPEG)
Идентификатор кодека : XVID
Идентификатор кодека/Подсказка : XviD
Продолжительность : 1 ч. 52 м.
Битрейт : 1398 Кбит/сек
Ширина : 720 пикселей
Высота : 304 пикселя
Соотношение сторон : 2,35:1
Частота кадров : 23,976 кадра/сек
Цветовое пространство : YUV
Субдискретизация насыщенности : 4:2:0
Битовая глубина : 8 бит
Тип развёртки : Прогрессивная
Метод сжатия : С потерями
Бит/(Пиксели*Кадры) : 0.266
Размер потока : 1,10 Гбайт (75%)
Библиотека кодирования : XviD 1.2.1 (UTC 2008-12-04)

Аудио
Идентификатор : 1
Формат : AC-3
Формат/Информация : Audio Coding 3
Расширение режима : CM (complete main)
Параметр Endianness формата : Big
Идентификатор кодека : 2000
Продолжительность : 1 ч. 52 м.
Вид битрейта : Постоянный
Битрейт : 448 Кбит/сек
Каналы : 6 каналов
Расположение каналов : Front: L C R, Side: L R, LFE
Частота : 48,0 КГц
Битовая глубина : 16 бит
Метод сжатия : С потерями
Размер потока : 361 Мбайт (24%)
Выравнивание : Разделение по промежуткам
Продолжительность промежутка : 42 мс. (1,00 видеокадр)
Время предзагрузки промежутка : 500 мс.

[/ code]

Тех. данные
Качество: HDRip BDRip 720p
Продолжительность: 01:52:35 час.

Формат: AVI
Видео кодек: XviD|
Аудио кодек: AC3
Видео: XviD, 720x304 (2.35:1), 1397 kbps, 23,976 fps, 0,266 bpp
Аудио: AC3, 5.1 ch 48 kHz, 448 kbps


|Cтол заказов| Наши раздачи| Набор в группу| Сказать спасибо|


ca41075b507c8b83deb22999ce6cb7ecd6585debКапитан Гром и Святой Грааль / El Capitán Trueno y el Santo Grial (Антонио Хернандез, Приключения, 2011) [HDRip, Любительский одноголосый - (zamez)] Капитан Гром и Святой Грааль / El Capitán Trueno y el Santo Grial (Антонио Хернандез, Приключения, 2011) [HDRip, Любительский одноголосый - (zamez)] " />

Аплоадер: Админ, дата: 31-12-2012, 11:18, торрент скачан: 359 раз

Понравилась раздача? Посмотрите эти:
  • Бойфренд из будущего / About Time (Ричард Кёртис, Фантастика, драма, комеди ...
  • Одноклассники 2 / Grown Ups 2 (Деннис Дуган, Комедия, 2013) [BDRip, Професс ...
  • Прошлое / Le passé (Асгар Фархади, Драма, детектив , 2013) [HDRip, Авторски ...
  • Паприка / Paprika // Фильм 1, эпизод 1 (из 1) (2006) [BDRip, профессиональн ...
  • Вот я какой/ Thats What I Am (Майкл Павоне, Драма, 2011) [HDRip, Профессион ...
  • Жил-был тигр / Ek Tha Tiger (Кабир Кхан, боевик, триллер , 2012) [ HDRip, ...
  • Легенда о МорДу / The Legend of MorDu (Брайан Ларсен, Короткометражный, ска ...
  • Злые птицы: Хэллоуин / Angry Birds: HamOWeen (Джей Ройвайнен, Мультфильм, к ...
  • Путешествие на дно моря / Voyage to the Bottom of the Sea (Ирвин Аллен / I ...
  • Кажется, я люблю свою жену / I Think I Love My Wife (Крис Рок, Драма, мелод ...
  • Бог любви / God of Love (Люк Мэзени, Короткометражка, фэнтези, комедия, мел ...
  • Взлом: По ту сторону мира / .hack//Sekai no mukou ni // Фильм 1 (из 1) (20 ...
  • Идеальный Голос / Pitch Perfect (Джейсон Мур, Комедия, музыка, 2012) [HDRip ...
  • Дорога на... / Road to (Таисия Игуменцева, Комедия, короткометражный, 2011) ...
  • Боец из трущоб / Gutter King (Кейт Алан Моррис / Keith Alan Morris, боевик, ...
  • Масс Эффект: Ушедший Герой / Mass Effect: Paragon Lost // Фильм 1 (из 1) ( ...
  • Кошмар / Nightmare / Qing Yan (Херман Яу, ужасы, триллер, 2012) [DVDRip, Лю ...
  • Челюсти 3D / Shark Night 3D (Дэвид Р. Эллис, ужасы, триллер, 2011) [HDRip, ...
  • Ловцы забытых голосов / Hoshi wo Ou Kodomo (2011) [HDRip, любительский (одн ...
  • Нет мужчин - нет проблем / Without Men (Габриела Тальявини, Комедия, 2011) ...
  • Гениальный папа / Father of Invention (Трент Купер, Драма, комедия, 2010) [ ...
  • Глаз шторма / The Eye of the Storm (Фред Скеписи, Драма, 2011) [HDRip, Проф ...
  • Бюро находок : Потерянный и найденный / Lost and Found (Филип Хант, коротко ...
  • Человек из банки (Иван Кульнев, Комедия, 2012) [DVDRip, Не требуется]
  • Сдохни, Джон Такер / John Tucker Must Die (Бетти Томас, мелодрама, комедия, ...
  • Информация
    Посетители, находящиеся в группе Гости, не могут оставлять комментарии к данной публикации.