вход на сайт

Имя пользователя :
Пароль :

Восстановление пароля Регистрация
Семья Робинзонов (Швейцарская семья Робинзонов) / Swiss Family Robinson (Джонатан Мостоу, комедия, приключения, 1988) [DVDRip, Профессиональный (одноголосый, закадровый) студия "Радость"(Олег Оверченко)]
Рейтинг:
(голосов: 1)



[img]{THEME}/images/logopost.png[/img]



Швейцарская семья Робинзонов / Swiss Family Robinson

Год выпуска: 1960
Страна: США
Производство: Walt Disney Pictures
Жанр: приключения, семейный

Режиссёр: Кен Эннакин
В ролях: Джон Миллз Дороти МакГуайр Джеймс МакАртур Джанет Манро Сессю Хаякава Томми Кирк Кевин Коркоран Сесил Паркер Энди Хо Милтон Рейд

Перевод: Профессиональный (одноголосый, закадровый) студия "Радость"(Олег Оверченко)
Субтитры: Отсутствуют

Описание:
Семья Робинсонов, которая состоит из отца, матери и троих сыновей, терпит бедствие на море. Их корабль наткнулся на риф и они вынуждены вместе с домашними животными и грузом высадится на пустынный остров. Вроде, быт налажен. Но пираты и другие опасности не оставляют семью в покое...
Классик Johann David Wyss и не предполагал бы, что появится кинематографический вариант его повести с таким изобилием приключений, юмора и прекрасных видов природы


Дополнительно:
MediaInfo ▼Text
Общее
Полное имя :J:Швейцарская семья РобинзоновШвейцарская семья Робинзонов.avi
Формат :AVI
Размер :912 MiB
Продолжительность :02:06:21.816
Общий поток :1 009 Kbps
Программа кодирования :Lavf54.1.100

Видео
Идентификатор :0
Формат :MPEG-4 Visual
Профиль формата :Advanced [email protected]
Параметр BVOP формата :1
Параметр Qpel формата :No
Параметр GMC формата :0
Параметр Matrix формата :Custom
Идентификатор кодека :XVID
Продолжительность :2h 6mn 21s 741ms
Битрейт :805 Kbps
Ширина :608 pixels
Высота :272 pixels
Соотношение сторон :2.235
Частота кадров :23.976 fps
Глубина цвета :8 bits
Подвыборка цветности :4:2:0
Цветовое пространство :YUV
Тип развертки :Progressive
Бит/(Пиксели*Кадры) :0.203
Размер потока :727 MiB (80%)
Библиотека кодирования :XviD0047

Аудио #1
Идентификатор :1
Формат :MPEG Audio
Идентификатор кодека :55
Продолжительность :02:06:21.816
Вид битрейта :Constant
Битрейт :192 Kbps
Канал(ы) :2 channels
Частота :48.0 KHz
Метод сжатия :Lossy
Размер потока :174 MiB (19%)



Тех. да
a3d1211106f87db53e156d478ce85d1b410a1fbdСемья Робинзонов (Швейцарская семья Робинзонов) / Swiss Family Robinson (Джонатан Мостоу, комедия, приключения, 1988) [DVDRip, Профессиональный (одноголосый, закадровый) студия "Радость"(Олег Оверченко)] Семья Робинзонов (Швейцарская семья Робинзонов) / Swiss Family Robinson (Джонатан Мостоу, комедия, приключения, 1988) [DVDRip, Профессиональный (одноголосый, закадровый) студия "Радость"(Олег Оверченко)] " />

Аплоадер: Админ, дата: 30-12-2012, 00:00, торрент скачан: 359 раз

Понравилась раздача? Посмотрите эти:
  • Абориген (Елена Николаева, драма, 1988) [DVDRip, Не требуется]
  • Если бы я был королём / If I Were King (Фрэнк Ллойд, приключения, история, ...
  • Командир / Der Commander (Антонио Маргерити, боевик, военный, 1988) [DVDRip ...
  • Водительские права / License to Drive (Грег Биман, Комедия, приключения, се ...
  • Рамона / Ramona (Генри Кинг, драма, мелодрама, 1936) [DVDRip, Профессиональ ...
  • Риф Донована / Donovans Reef (Джон Форд, мелодрама, комедия, 1963) [DVDRip, ...
  • Моя семья и другие животные / My Family and Other Animals // Сезон 1, эпиз ...
  • Цена славы / Price of Glory (Карлос Авила, Драма, спорт, 2000) [DVDRip, Про ...
  • Взятки гладки (2 части из 2) (Игорь Масленников, Комедия, 2008) [DVDRip, Не ...
  • У меня есть лев (2 части из 2) (Константин Бромберг, драма, комедия, приклю ...
  • Приморский бульвар (2 части из 2) (Александр Полынников, мюзикл, комедия, 1 ...
  • (Animal Planet)Дикая планета. Семья гепардов / The Cheetah Family (Документ ...
  • Таинственный остров / Остров приключений / Mysterious Island (Сай Эндфилд, ...
  • Сталкеры / Ядерная семья / Nuclear family (Кайл Ранкин, фантастика, 2010) [ ...
  • Капитан Крюк / Hook (Стивен Спилберг, фэнтези, комедия, приключения, семейн ...
  • Бог знает, мистер Аллисон / Heaven Knows, Mr. Allison (Джон Хьюстон, боевик ...
  • Приключения канонира Доласа / Jak rozpetalem druga wojne swiatowa (Тадеуш Х ...
  • Семья Флоддер / Flodder (Дик Мас, Комедия, 1986) [DVDRip, Профессиональный ...
  • На хуторе у леса / Na samote u lesa (Иржи Менцель, драма, комедия, семейный ...
  • Робинзон Крузо / Robinson Crusoe (Луис Бунюэль, драма, приключения, 1954) [ ...
  • Соседи / Neighbors (Джон Г. Эвилдсен, Комедия, 1981) [HDTVRip, Профессионал ...
  • Старый Брехун / Old Yeller (Роберт Стивенсон, драма, комедия, приключения, ...
  • Океан (Михаил Косырев-Нестеров, драма, 2008) [DVDRip, Профессиональный (одн ...
  • Авария / Breakdown (Джонатан Мостоу, боевик, триллер, драма, криминал, дете ...
  • Жизнь - это долгая спокойная река / La vie est un long fleuve tranquille (Э ...
  • Информация
    Посетители, находящиеся в группе Гости, не могут оставлять комментарии к данной публикации.