вход на сайт

Имя пользователя :
Пароль :

Восстановление пароля Регистрация
Центурион / Centurion (Нил Маршалл / Neil Marshall, Боевик, триллер, драма, приключения, военный, история, 2010) [BDRip-AVC, Дубляж, Оригинал, Sub]
Рейтинг:
(голосов: 1)



[img]{THEME}/images/logopost.png[/img]



Центурион / Centurion
«Сражайся или умри»


Год выпуска: 2010
Страна: Франция , Великобритания
Производство: Celador Films
Жанр: Боевик, триллер, драма, приключения, военный, история

Режиссёр: Нил Маршалл / Neil Marshall
В ролях: Майкл Фассбендер, Ольга Куриленко, Доминик Уэст, Джей Джей Филд, Андреас Висневски, Дэвид Леджено, Аксель Кэролин, Даффер Лабидин, Ли Росс, Дэвид Моррисси и др.

Перевод: Дубляж, Оригинал (английский)
Субтитры: Русские, английские

Описание: Действие разворачивается в 117 году нашей эры. Главный герой - Квинтус Диас - единственный человек, уцелевший после налёта пиктов на пограничную римскую крепость. Вместе с легендарным Девятым легионом он отправляется на север, чтобы стереть с лица земли пиктов и уничтожить их предводителя, Горлакона.



Качество: BDRip-AVC
Продолжительность: 01:37:30час.

Формат: MKV
Видео кодек: AVC
Аудио кодек: AC3
Видео: 1024x436 (2.35:1), 23.976 fps, 3358 kbps avg, 0.314 bit/pixel
Аудио #1: 48 kHz, 3/2 (L,C,R,l,r) + LFE ch, 448 kbps avg [Дубляж]
Аудио #2: 48 kHz, 3/2 (L,C,R,l,r) + LFE ch, 448 kbps avg [Оригинал]

Дата премьеры (мир): 12 февраля 2010
Дата премьеры (РФ): 29 июля 2010, «Централ Партнершип»

"MediaInfo" ▼General
Unique ID : 238648152271496403269190372395574344108 (0xB389F656E2289E2681CF421B4733B9AC)
Complete name : D:Centurion.2010.BDRip-AVC.mkv
Format : Matroska
Format version : Version 2
File size : 2.90 GiB
Duration : 1h 37mn
Overall bit rate : 4 255 Kbps
Movie name : Centurion (2010) - fanatus
Encoded date : UTC 2012-09-27 09:22:57
Writing application : mkvmerge v3.4.0 (Rapunzel) сборка от May 15 2010 09:38:20
Writing library : libebml v0.8.0 + libmatroska v0.9.0

Video
ID : 1
Format : AVC
Format/Info : Advanced Video Codec
Format profile : [email protected]
Format settings, CABAC : Yes
Format settings, ReFrames : 12 frames
Codec ID : V_MPEG4/ISO/AVC
Duration : 1h 37mn
Bit rate : 3 358 Kbps
Width : 1 024 pixels
Height : 436 pixels
Display aspect ratio : 2.35:1
Frame rate : 23.976 fps
Color space : YUV
Chroma subsampling : 4:2:0
Bit depth : 8 bits
Scan type : Progressive
Bits/(Pixel*Frame) : 0.314
Stream size : 2.23 GiB (77%)
Title : Centurion (2010)
Writing library : x264 core 128 r2216 198a7ea
Encoding settings : cabac=1 / ref=12 / deblock=1:-3:-3 / analyse=0x3:0x113 / me=tesa / subme=11 / psy=1 / psy_rd=1.00:0.05 / mixed_ref=1 / me_range=48 / chroma_me=1 / trellis=2 / 8x8dct=1 / cqm=0 / deadzone=21,11 / fast_pskip=0 / chroma_qp_offset=-3 / threads=16 / lookahead_threads=2 / sliced_threads=0 / nr=0 / decimate=0 / interlaced=0 / bluray_compat=0 / constrained_intra=0 / bframes=14 / b_pyramid=2 / b_adapt=2 / b_bias=0 / direct=3 / weightb=1 / open_gop=0 / weightp=2 / keyint=240 / keyint_min=23 / scenecut=40 / intra_refresh=0 / rc_lookahead=240 / rc=2pass / mbtree=1 / bitrate=3358 / ratetol=1.0 / qcomp=0.65 / qpmin=0 / qpmax=69 / qpstep=4 / cplxblur=20.0 / qblur=0.5 / ip_ratio=1.40 / aq=2:0.85
Language : English
Default : Yes
Forced : No

Audio #1
ID : 2
Format : AC-3
Format/Info : Audio Coding 3
Mode extension : CM (complete main)
Format settings, Endianness : Big
Codec ID : A_AC3
Duration : 1h 37mn
Bit rate mode : Constant
Bit rate : 448 Kbps
Channel(s) : 6 channels
Channel positions : Front: L C R, Side: L R, LFE
Sampling rate : 48.0 KHz
Bit depth : 16 bits
Compression mode : Lossy
Stream size : 312 MiB (11%)
Title : Dub
Language : Russian
Default : Yes
Forced : Yes

Audio #2
ID : 3
Format : AC-3
Format/Info : Audio Coding 3
Mode extension : CM (complete main)
Format settings, Endianness : Big
Codec ID : A_AC3
Duration : 1h 37mn
Bit rate mode : Constant
Bit rate : 448 Kbps
Channel(s) : 6 channels
Channel positions : Front: L C R, Side: L R, LFE
Sampling rate : 48.0 KHz
Bit depth : 16 bits
Compression mode : Lossy
Stream size : 312 MiB (11%)
Title : Original
Language : English
Default : No
Forced : No

Text #1
ID : 4
Format : UTF-8
Codec ID : S_TEXT/UTF8
Codec ID/Info : UTF-8
c83fcd9b5d40bb33fdcef5c7ffecfc3e8380a4a0Центурион / Centurion (Нил Маршалл / Neil Marshall, Боевик, триллер, драма, приключения, военный, история, 2010) [BDRip-AVC, Дубляж, Оригинал, Sub] Центурион / Centurion (Нил Маршалл / Neil Marshall, Боевик, триллер, драма, приключения, военный, история, 2010) [BDRip-AVC, Дубляж, Оригинал, Sub] " />

Аплоадер: Админ, дата: 28-09-2012, 14:47, торрент скачан: 359 раз

Понравилась раздача? Посмотрите эти:
  • Хроника / Chronicle (Джошуа Транк, фантастика, боевик, триллер, драма, 2012 ...
  • Напряги Извилины / Get Smart (Питер Сигал, Комедия, боевик, приключения ...
  • Черный дрозд / Deadfall (Штефан Руцовицки, Триллер, драма, криминал, 2012) ...
  • Центурион / Centurion (Нил Маршалл, приключения, боевик, 2010) [HDRip-AVC, ...
  • Робин Гуд [Режиссёрская версия] / Robin Hood [Directors Cut] (Ридли Скотт / ...
  • Цветы войны / Jin líng shí san chai (Чжан Имоу, драма, военный, история, 20 ...
  • Патруль / End of Watch (Дэвид Эйр, Триллер, драма, криминал, 2012) [BDRip-A ...
  • Закон доблести / Act of Valor (Майк МакКой, Скотт Во, боевик, триллер, прик ...
  • Ворон / The Raven (Джеймс МакТиг, Триллер, детектив, 2012) [BDRip 720p, Дуб ...
  • Цветы войны / Jin líng shí san chai (Чжан Имоу, драма, военный, история, 20 ...
  • Люди в черном 3 / Men in Black III (Барри Зонненфельд, Фантастика, боевик, ...
  • На Дороге / On The Road (Уолтер Саллес, Драма, приключения, 2012) [BDRip 72 ...
  • Патруль / End of Watch (Дэвид Эйр, Триллер, драма, криминал, 2012) [BDRip 7 ...
  • Центурион / Centurion (Нил Маршалл, боевик, триллер, драма, приключения, во ...
  • Центурион / Centurion (Нил Маршалл, боевик, триллер, драма, приключения, во ...
  • Центурион / Centurion (Нил Маршалл, боевик, триллер, драма, приключения, во ...
  • Центурион / Centurion (Нил Маршалл, боевик, триллер, драма, приключения, во ...
  • Центурион / Centurion (Нил Маршалл, боевик, триллер, драма, приключения, во ...
  • Центурион / Centurion (Нил Маршалл / Neil Marshall, боевик, триллер, драма, ...
  • Центурион / Centurion (Нил Маршалл, Боевик, Триллер, Драма, Приключения, Во ...
  • Информация
    Посетители, находящиеся в группе Гости, не могут оставлять комментарии к данной публикации.