вход на сайт

Имя пользователя :
Пароль :

Восстановление пароля Регистрация
[Квадрология] Индиана Джонс: Квадрология / Indiana Jones: Quadrology (Стивен Спилберг, Фантастика, боевик, триллер, приключения, 1981, 1984, 1989, 2008) [BDRip-AVC, Профессиональный (многоголосый, закадровый), Дубляж, Ukrainian, Оригинал]
Рейтинг:
(голосов: 1)



[img]{THEME}/images/logopost.png[/img]




Индиана Джонс: в поисках утраченного ковчега / Indiana Jones: Raiders of the Lost Ark
«Indiana Jones - the new hero from the creators of JAWS and STAR WARS.»


Год выпуска: 1981
Страна: США
Производство: Paramount Pictures; Lucasfilm Ltd.
Жанр: Боевик, приключения

Режиссёр: Стивен Спилберг
В ролях: Харрисон Форд, Карен Аллен, Пол Фримен, Рональд Лейси, Джон Рис-Дэвис, Денхолм Эллиот, Альфред Молина, Вольф Калер, Энтони Хиггинс, Вик Тэблиан, Дон Феллоуз, Уильям Хуткинс, Билл Рэймбуд, Фред Соренсон

Перевод: Профессиональный (многоголосый, закадровый), Профессиональный (многоголосый, закадровый) НТВ+, Авторский (одноголосый, закадровый), Оригинал
Озвучка:А. Гаврилов
Субтитры: Отсутствуют

Описание: Первая часть невероятных похождений прославленного археолога и искателя приключений Индианы Джонса. Известный археолог и специалист по оккультным наукам доктор Джонс получает опасное задание от правительства США. Он должен отправиться на поиски уникальной реликвии — священного Ковчега. Но Индиана и не подозревает, что аналогичный приказ уже получили тайные агенты Адольфа Гитлера…



Качество: BDRip-AVC
Продолжительность: 01:55:18 час.


Формат: MKV
Видео кодек: x264
Аудио кодек: AC3
Видео: 1024x436 (2,35:1), 23.976 fps, x264 ~1 361 kbps avg, 0.127 bit/pixel
Аудио#1: 48 kHz, AC3 Dolby Digital, 3/2 (L,C,R,l,r) + LFE ch, ~384 kbps (Киномания)
Аудио#2: 48 kHz, AC3 Dolby Digital, 3/2 (L,C,R,l,r) + LFE ch, ~384 kbps (НТВ+)
Аудио#3: 48 kHz, AC3 Dolby Digital, 3/2 (L,C,R,l,r) + LFE ch, ~384 kbps (А. Гаврилов)
Аудио#4: 48 kHz, AC3 Dolby Digital, 2/0 (L,R) ch, ~192 kbps (Оригинал)

Дата премьеры (мир): 12 июня 1981
Скриншоты ▼

MediaInfo ▼General
Unique ID : 196996494554989776005386962184866731540 (0x9434251051FB9FB8A90B606039719614)
Complete name : G:Индиана ДжонсRaiders of the Lost Ark.1981.BDRip-AVC.mkv
Format : Matroska
Format version : Version 2
File size : 2.18 GiB
Duration : 1h 55mn
Overall bit rate : 2 707 Kbps
Movie name : Индиана Джонс: В поисках утраченного ковчега / Raiders of the Lost Ark (1981) BDRip-AVC rip by Rulya74
Encoded date : UTC 2012-09-12 18:46:22
Writing application : mkvmerge v5.7.0 (The Whirlwind) built on Jul 8 2012 20:08:51
Writing library : libebml v1.2.3 + libmatroska v1.3.0

Video
ID : 1
Format : AVC
Format/Info : Advanced Video Codec
Format profile : [email protected]
Format settings, CABAC : Yes
Format settings, ReFrames : 8 frames
Codec ID : V_MPEG4/ISO/AVC
Duration : 1h 55mn
Bit rate : 1 361 Kbps
Width : 1 024 pixels
Height : 436 pixels
Display aspect ratio : 2.35:1
Frame rate mode : Constant
Frame rate : 23.976 fps
Color space : YUV
Chroma subsampling : 4:2:0
Bit depth : 8 bits
Scan type : Progressive
Bits/(Pixel*Frame) : 0.127
Stream size : 1.05 GiB (48%)
Writing library : x264 core 125 r2208 d9d2288
Encoding settings : cabac=1 / ref=8 / deblock=1:-3:-2 / analyse=0x3:0x113 / me=umh / subme=9 / psy=1 / psy_rd=1.00:0.09 / mixed_ref=1 / me_range=32 / chroma_me=1 / trellis=2 / 8x8dct=1 / cqm=0 / deadzone=21,11 / fast_pskip=0 / chroma_qp_offset=-3 / threads=16 / lookahead_threads=2 / sliced_threads=0 / nr=0 / decimate=1 / interlaced=0 / bluray_compat=0 / constrained_intra=0 / bframes=9 / b_pyramid=2 / b_adapt=2 / b_bias=0 / direct=3 / weightb=1 / open_gop=0 / weightp=2 / keyint=240 / keyint_min=22 / scenecut=40 / intra_refresh=0 / rc=2pass / mbtree=0 / bitrate=1361 / ratetol=1.0 / qcomp=0.60 / qpmin=10 / qpmax=51 / qpstep=4 / cplxblur=20.0 / qblur=0.5 / ip_ratio=1.40 / pb_ratio=1.30 / aq=2:1.00
Default : Yes
Forced : No

Audio #1
ID : 2
Format : AC-3
Format/Info : Audio Coding 3
Mode extension : CM (complete main)
Format settings, Endianness : Big
Codec ID : A_AC3
Duration : 1h 55mn
Bit rate mode : Constant
Bit rate : 384 Kbps
Channel(s) : 6 channels
Channel positions : Front: L C R, Side: L R, LFE
Sampling rate : 48.0 KHz
Bit depth : 16 bits
Compression mode : Lossy
Stream size : 317 MiB (14%)
Title : Профессиональны
2e1bc98794a050fa900b7386ac06b539550c9a17[Квадрология] Индиана Джонс: Квадрология / Indiana Jones: Quadrology (Стивен Спилберг, Фантастика, боевик, триллер, приключения, 1981, 1984, 1989, 2008) [BDRip-AVC, Профессиональный (многоголосый, закадровый), Дубляж, Ukrainian, Оригинал] [Квадрология] Индиана Джонс: Квадрология / Indiana Jones: Quadrology (Стивен Спилберг, Фантастика, боевик, триллер, приключения, 1981, 1984, 1989, 2008) [BDRip-AVC, Профессиональный (многоголосый, закадровый), Дубляж, Ukrainian, Оригинал] " />

Аплоадер: Админ, дата: 17-09-2012, 23:46, торрент скачан: 359 раз

Понравилась раздача? Посмотрите эти:
  • Индиана Джонс [Квадрология] / Indiana Jones [Quadrilogy] (Стивен Спилберг, ...
  • Индиана Джонс: В поисках утраченного ковчега / Raiders of the Lost Ark (Сти ...
  • Индиана Джонс [Трилогия] / Indiana Jones [Trilogy] (Стивен Спилберг /Steven ...
  • Индиана Джонс [Трилогия] / Indiana Jones [Trilogy] (Стивен Спилберг /Steven ...
  • Индиана Джонс: Квадрология / Indiana Jones: Quadrology (Стивен Спилберг, пр ...
  • Индиана Джонс и Королевство xрустального черепа / Indiana Jones and the Kin ...
  • Индиана Джонс. Квадрология / Indiana Jones. The Complete collection (Стивен ...
  • Индиана Джонс: В поисках утраченного ковчега / Indiana Jones: Raiders of th ...
  • Индиана Джонс и Храм Судьбы / Indiana Jones and the Temple of Doom (Стивен ...
  • Индиана Джонс и последний крестовый поход / Indiana Jones and the Last Crus ...
  • Индиана Джонс и Королевство xрустального черепа / Indiana Jones and the Kin ...
  • Люди в черном 3 / Men in Black III (Барри Зонненфельд, Фантастика, боевик, ...
  • Индиана Джонс: Квадрология / Indiana Jones: The Complete Adventures (Стиве ...
  • Индиана Джонс: В поисках утраченного ковчега / Indiana Jones and the Raider ...
  • Индиана Джонс и Храм Судьбы / Indiana Jones and the Temple of Doom (Стивен ...
  • Индиана Джонс и последний крестовый поход / Indiana Jones and the Last Crus ...
  • Индиана Джонс: Трилогия/The Complete Movie Collection [1981-1989, Боевик, ...
  • Индиана Джонс / Indiana Jones (Стивен Спилберг) [1981-1989 г., боевик, три ...
  • Индиана Джонс и Королевство xрустального черепа / Indiana Jones and the Kin ...
  • Индиана Джонс: В поисках утраченного Ковчега / Raiders of the Lost Ark [Сти ...
  • Индиана Джонс и Храм Судьбы / Indiana Jones and the Temple of Doom [Стивен ...
  • Индиана Джонс и последний крестовый поход / Indiana Jones and the Last Crus ...
  • Индиана Джонс и Королевство xрустального черепа / Indiana Jones and the Kin ...
  • Индиана Джонс и Королевство xрустального черепа / Indiana Jones and the Kin ...
  • Лего: Индиана Джонс в поисках утраченной детали / LEGO: Indiana Jones and t ...
  • Информация
    Посетители, находящиеся в группе Гости, не могут оставлять комментарии к данной публикации.