вход на сайт

Имя пользователя :
Пароль :

Восстановление пароля Регистрация
Следопыт / Pathfinder (Маркус Ниспел / Marcus Nispel, боевик, триллер, драма, приключения, военный, история, 2007) [BDRip - AVC, Дублированный + Оригинал + SUB]
Рейтинг:
(голосов: 1)



[img]{THEME}/images/logopost.png[/img]



Следопыт / Pathfinder
«Two Worlds, One War. The Ultimate Battle Begins.»

Год выпуска: 2007
Страна: США
Производство: 20th Century Fox Film Corporation, Dune Entertainment, Major Studio Partners, Phoenix Pictures
Жанр: боевик, триллер, драма, приключения, военный, история

Режиссёр: Маркус Ниспел / Marcus Nispel
В ролях: Карл Урбан, Мун Бладгуд, Рассел Минс, Клэнси Браун, Джей Таваре, Натаниель Арканд, Ральф Мёллер, Кевин Лоринг, Вейн Чарльз Бэйкер, Мишель Траш

Перевод: 1: Профессиональный (полное дублирование) (DUB)
2: Оригинал
Субтитры: Русские, Английские (по 3 вида)

Описание: Северная Америка. 600 лет до прибытия Колумба. Викинги вторгаются на земли коренных жителей этих мест — индейцев. После столкновения двух племен, мальчик викингов остается один и попадает в лагерь врага.

Его принимают в племя и воспитывают. Через 15 лет юный герой вновь встречается со своим некогда родным народом, но последствия этой встречи оказываются трагичными для приютившего его племени и герой принимает решение поставить точку в кровопролитной войне.Дата премьеры (мир): 11 января 2007
Дата премьеры (РФ): 11 января 2007, «Гемини Киномир»
Релиз на DVD: 8 июля 2010, «Двадцатый Век Фокс СНГ»
Релиз на Blu-Ray: 9 июня 2011, «Двадцатый Век Фокс СНГ»
Качество: BDRip - AVC
Продолжительность: 01:47:11

Формат: MKV
Видео кодек: x264
Аудио кодек: AC3
Видео: 912 x 380 (2.40:1), 23.976 fps, ~2 994 kbps avg, 0.360 bit/pixel
Аудио #1: [Russian] 48 kHz, AC3, 6 channels (Front: L C R, Side: L R, LFE), ~448.00 kbps avg | DUB
Аудио #2: [English] 48 kHz, AC3, 6 channels (Front: L C R, Side: L R, LFE), ~448.00 kbps avg | Оригинал
MediaInfo ▼TextGeneral
Unique ID : 210747263328497703039343660047812815305 (0x9E8C724EC134F4C0A8D2A90F8BFC69C9)
Complete name : D:VIDEOPathfinder.2007.BDRip-AVC.mkv
Format : Matroska
File size : 2.91 GiB
Duration : 1h 47mn
Overall bit rate : 3 890 Kbps
Encoded date : UTC 2011-01-27 14:44:36
Writing application : mkvmerge v3.4.0 (Rapunzel) built on May 15 2010 09:38:20
Writing library : libebml v0.8.0 + libmatroska v0.9.0
Video
ID : 1
Format : AVC
Format/Info : Advanced Video Codec
Format profile : [email protected]
Format settings, CABAC : Yes
Format settings, ReFrames : 11 frames
Codec ID : V_MPEG4/ISO/AVC
Duration : 1h 47mn
Bit rate : 2 994 Kbps
Width : 912 pixels
Height : 380 pixels
Display aspect ratio : 2.40:1
Frame rate : 23.976 fps
Color space : YUV
Chroma subsampling : 4:2:0
Bit depth : 8 bits
Scan type : Progressive
Bits/(Pixel*Frame) : 0.360
Stream size : 2.18 GiB (75%)
Title : Pathfinder
Writing library : x264 core 112 r1867 22bfd31
Encoding settings : cabac=1 / ref=11 / deblock=1:-2:-1 / analyse=0x3:0x133 / me=umh / subme=10 / psy=1 / psy_rd=1.10:0.00 / mixed_ref=1 / me_range=48 / chroma_me=0 / trellis=2 / 8x8dct=1 / cqm=0 / deadzone=21,11 / fast_pskip=0 / chroma_qp_offset=-2 / threads=6 / sliced_threads=0 / nr=0 / decimate=0 / interlaced=0 / constrained_intra=0 / bframes=9 / b_pyramid=2 / b_adapt=2 / b_bias=0 / direct=3 / weightb=1 / open_gop=0 / weightp=2 / keyint=250 / keyint_min=23 / scenecut=40 / intra_refresh=0 / rc_lookahead=40 / rc=2pass / mbtree=0 / bitrate=2994 / ratetol=1.0 / qcomp=0.70 / qpmin=0 / qpmax=51 / qpstep=4 / cplxblur=20.0 / qblur=0.5 / vbv_maxrate=25000 / vbv_bufsize=31250 / nal_hrd=none / ip_ratio=1.40 / pb_ratio=1.30 / aq=1:1.00
Language : English
Audio #1
ID : 2
Format : AC-3
Format/Info : Audio Coding 3
Mode extension : CM (complete main)
Codec ID : A_AC3
Duration : 1h 47mn
Bit rate mode : Constant
Bit rate : 448 Kbps
Channel(s) : 6 channels
Channel positions : Front: L C R, Side: L R, LFE
Sampling rate : 48.0 KHz
Bit depth : 16 bits
Compression mode : Lossy
Stream size : 343 MiB (12%)
Title : Дубляж (с врезками П.Гланц, И.Королёва)
Language :
6cbc9e8b028345df2702c8b96baa3cfb4e8bbb62Следопыт / Pathfinder (Маркус Ниспел / Marcus Nispel, боевик, триллер, драма, приключения, военный, история, 2007) [BDRip - AVC, Дублированный + Оригинал + SUB] Следопыт / Pathfinder (Маркус Ниспел / Marcus Nispel, боевик, триллер, драма, приключения, военный, история, 2007) [BDRip - AVC, Дублированный + Оригинал + SUB] " />

Аплоадер: Админ, дата: 7-07-2012, 11:41, торрент скачан: 359 раз

Понравилась раздача? Посмотрите эти:
  • Пастырь / Priest (Скотт Чарльз Стюарт, ужасы, фантастика, боевик, триллер, ...
  • Хроника / Chronicle (Джошуа Транк, фантастика, боевик, триллер, драма, 2012 ...
  • Следопыт / Pathfinder [Маркус Ниспел,Боевик, Приключения,Исторический,2007] ...
  • Персонаж / Stranger Than Fiction (Марк Форстер, Комедия, драма, фантастика, ...
  • Команда «А» / The A-Team (Джо Карнахан, боевик, триллер, комедия, приключен ...
  • Стрелок / Shooter (Антуан Фукуа, боевик, триллер, криминал, детектив, 2007) ...
  • Человек-волк [Театральная версия] / The Wolfman [Theatrical cut] (Джо Джонс ...
  • Робин Гуд [Режиссёрская версия] / Robin Hood [Directors Cut] (Ридли Скотт / ...
  • Сутенер / Le mac (Паскаль Бюрдо / Pascal Bourdiaux, комедия, криминал, 2010 ...
  • Центурион / Centurion (Нил Маршалл / Neil Marshall, Боевик, триллер, драма, ...
  • Закон доблести / Act of Valor (Майк МакКой, Скотт Во, боевик, триллер, прик ...
  • Коллекционер 2 / The Collection (Маркус Данстэн, ужасы, боевик, триллер , 2 ...
  • [3D]Конан-варвар в 3Д / Conan the Barbarian 3D (Маркус Ниспел / Marcus Nisp ...
  • Конан-варвар / Conan the Barbarian (Маркус Ниспел, фэнтези, боевик, приключ ...
  • Морской бой / Battleship (Питер Берг, Фантастика, боевик, триллер, приключе ...
  • Коллекционер 2 / The Collection (Маркус Данстэн, ужасы, боевик, триллер, 20 ...
  • Коллекционер 2 / The Collection (Маркус Данстэн, ужасы, боевик, триллер, 20 ...
  • Следопыт / Pathfinder (Маркус Ниспел, Боевик, триллер, драма, приключения, ...
  • Следопыт / Pathfinder (Маркус Ниспел, Приключения, 2007) [HDRip, Профессион ...
  • Следопыт / Pathfinder [Unrated] (Маркус Ниспел, боевик, триллер, драма, при ...
  • Информация
    Посетители, находящиеся в группе Гости, не могут оставлять комментарии к данной публикации.