вход на сайт

Имя пользователя :
Пароль :

Восстановление пароля Регистрация
Робин Гуд [Режиссёрская версия] / Robin Hood [Directors Cut] (Ридли Скотт / Ridley Scott, боевик, драма, приключения, 2010) [BDRip - AVC, Дублированный + Оригинал + SUB]
Рейтинг:
(голосов: 1)



[img]{THEME}/images/logopost.png[/img]



Робин Гуд [Режиссёрская версия] / Robin Hood [Directors Cut]
«The untold story of how the man became a legend»

Год выпуска: 2010
Страна: США , Великобритания
Производство: Imagine Entertainment, Relativity Media, Scott Free Productions, Universal Pictures
Жанр: боевик, драма, приключения

Режиссёр: Ридли Скотт / Ridley Scott
В ролях: Рассел Кроу, Кейт Бланшетт, Макс фон Сюдов, Уильям Хёрт, Марк Стронг, Оскар Айзек, Дэнни Хьюстон, Айлин Эткинс, Марк Эдди, Мэтью Макфейден

Перевод: 1: Профессиональный (полное дублирование) (DUB)
2: Оригинал
Субтитры: русские, английские

Описание: История лучника армии Ричарда Львиное Сердце, который борется против нормандских захватчиков и становится легендарным героем, известным под именем Робин Гуд.Дата премьеры (мир): 12 мая 2010
Дата премьеры (РФ): 12 мая 2010, «UPI»
Релиз на DVD: 14 сентября 2010, «Юниверсал Пикчерс Рус»
Релиз на Blu-Ray: 14 сентября 2010, «Юниверсал Пикчерс Рус»
Качество: BDRip - AVC
Продолжительность: 02:35:48

Формат: MKV
Видео кодек: x264
Аудио кодек: AC3
Видео: 960 x 400 (2.40:1), 23.976 fps, AVC, ~1 775 kbps avg, 0.193 bit/pixel
Аудио #1: [Russian] 48 kHz, AC3, 6 channels (Front: L C R, Side: L R, LFE), ~448.00 kbps avg | DUB
Аудио #2: [English] 48 kHz, AC3, 6 channels (Front: L C R, Side: L R, LFE), ~448.00 kbps avg | Оригинал
MediaInfo ▼TextFormat : Matroska
File size : 2.91 GiB
Duration : 2h 35mn
Overall bit rate : 2 673 Kbps
Movie name : Robin Hood (2010) BDRip
Encoded date : UTC 2010-10-28 11:20:21
Writing application : mkvmerge v3.4.0 (Rapunzel) built on May 15 2010 09:38:20
Writing library : libebml v0.8.0 + libmatroska v0.9.0
Cover : Yes
Video
ID : 1
Format : AVC
Format/Info : Advanced Video Codec
Format profile : [email protected]
Format settings, CABAC : Yes
Format settings, ReFrames : 14 frames
Muxing mode : Container [email protected]
Codec ID : V_MPEG4/ISO/AVC
Duration : 2h 35mn
Bit rate : 1 775 Kbps
Width : 960 pixels
Height : 400 pixels
Display aspect ratio : 2.40:1
Frame rate : 23.976 fps
Color space : YUV
Chroma subsampling : 4:2:0
Bit depth : 8 bits
Scan type : Progressive
Bits/(Pixel*Frame) : 0.193
Stream size : 1.88 GiB (64%)
Writing library : x264 core 107 r1745 4785e8e
Encoding settings : cabac=1 / ref=14 / deblock=1:-2:-1 / analyse=0x3:0x133 / me=umh / subme=10 / psy=1 / psy_rd=0.90:0.12 / mixed_ref=1 / me_range=32 / chroma_me=1 / trellis=2 / 8x8dct=1 / cqm=0 / deadzone=21,11 / fast_pskip=0 / chroma_qp_offset=-3 / threads=6 / sliced_threads=0 / nr=0 / decimate=0 / interlaced=0 / constrained_intra=0 / bframes=12 / b_pyramid=2 / b_adapt=2 / b_bias=0 / direct=3 / weightb=1 / open_gop=0 / weightp=2 / keyint=250 / keyint_min=23 / scenecut=40 / intra_refresh=0 / rc_lookahead=120 / rc=2pass / mbtree=1 / bitrate=1775 / ratetol=1.0 / qcomp=0.70 / qpmin=10 / qpmax=51 / qpstep=4 / cplxblur=20.0 / qblur=0.5 / ip_ratio=1.40 / aq=1:1.00
Language : English
Audio #1
ID : 2
Format : AC-3
Format/Info : Audio Coding 3
Mode extension : CM (complete main)
Codec ID : A_AC3
Duration : 2h 35mn
Bit rate mode : Constant
Bit rate : 448 Kbps
Channel(s) : 6 channels
Channel positions : Front: L C R, Side: L R, LFE
Sampling rate : 48.0 KHz
Bit depth : 16 bits
Stream size : 499 MiB (17%)
Title : Dub
Language : Russian
Audio #2
ID : 3
Format : AC-3
Format/Info : Audio Coding 3
Mode extension : CM (complete main)
Codec ID : A_AC3
Duration : 2h 35mn
Bit rate mode : Constant
Bit rate : 448 Kbps
Channel(s) : 6 channels
Channel positions : Front: L C R, Side: L R, LFE
Sampling rate : 48.0 KHz
Bit depth : 16 bits
Stream size : 499 MiB (17%)
Title : Original
Language : English
Text #1
ID : 4
Format : UTF-8
Codec ID : S_TEXT/UTF8
Codec ID/Info : UTF-8 Plain Text
Title : Forced
Language : Russian
Text #2
ID : 5
Format : UTF-8
Codec ID : S_TEXT/U
3f3ab797d0e58aa8fcd3f8077ac3b54d6d60abcaРобин Гуд [Режиссёрская версия] / Robin Hood [Directors Cut] (Ридли Скотт / Ridley Scott, боевик, драма, приключения, 2010) [BDRip - AVC, Дублированный + Оригинал + SUB] Робин Гуд [Режиссёрская версия] / Robin Hood [Directors Cut] (Ридли Скотт / Ridley Scott, боевик, драма, приключения, 2010) [BDRip - AVC, Дублированный + Оригинал + SUB] " />

Аплоадер: Админ, дата: 29-06-2012, 20:02, торрент скачан: 359 раз

Понравилась раздача? Посмотрите эти:
  • Робин Гуд [Театральная версия] / Robin Hood [Theatrical Cut] (Ридли Скотт, ...
  • Пастырь / Priest (Скотт Чарльз Стюарт, ужасы, фантастика, боевик, триллер, ...
  • Робин Гуд/ Robin Hood (Ридли Скотт, боевик,2010) [DVDRip, Профессиональный ...
  • Робин Гуд / Robin Hood (Ридли Скотт, боевик, драма, приключения, 2010) [BDR ...
  • Робин Гуд / Robin Hood [Расширенная Версия / Directors Cut] (Ридли Скотт, б ...
  • Царство Небесное [Режиссёрская версия] / Kingdom of Heaven [Directors cut] ...
  • Робин Гуд / Robin Hood (Ридли Скотт / Ridley Scott, боевик, драма, приключе ...
  • Робин Гуд [Режиссёрская версия] / Robin Hood [Directors cut] (Ридли Скотт, ...
  • Робин Гуд [Directors cut] / Robin Hood [Режиссёрская версия] (Ридли Скотт / ...
  • Город воров / The Town [Театральная версия / Theatrical Cut] (Бен Аффлек / ...
  • Персонаж / Stranger Than Fiction (Марк Форстер, Комедия, драма, фантастика, ...
  • Бедная богатая девочка / Young Adult (Джейсон Райтман, драма, комедия, 2011 ...
  • Человек-волк [Театральная версия] / The Wolfman [Theatrical cut] (Джо Джонс ...
  • Мальчики-налетчики / Takers (Джон Льюсенхоп, боевик, криминал, 2010) [BDRip ...
  • Центурион / Centurion (Нил Маршалл / Neil Marshall, Боевик, триллер, драма, ...
  • Закон доблести / Act of Valor (Майк МакКой, Скотт Во, боевик, триллер, прик ...
  • Робин Гуд / Robin Hood (режиссерская версия) (Ридли Скотт, боевик, драма, п ...
  • Робин Гуд (Режиссерская версия) / Robin Hood (Directors cut) [Ридли Скотт; ...
  • Леон: Профессионал (Режиссерская версия) / Leon (Люк Бессон, боевик, 1994) ...
  • Робин Гуд/ Robin Hood (Ридли Скотт, боевик, драма, приключения,2010) [DVDRi ...
  • Робин Гуд / Robin Hood [UNRATED Directors Cut] (Ридли Скотт, боевик, драма, ...
  • Робин Гуд / Robin Hood [Полная режиссерская версия] (Ридли Скотт, драмма, 2 ...
  • Робин Гуд / Robin Hood (режиссерская версия) (Ридли Скотт, боевик, драма, п ...
  • Робин Гуд / Robin Hood (Ридли Скотт, боевик, драма, приключения, 2010) [BD ...
  • Хостел 3 / Hostel: Part III (Скотт Спигел / Scott Spiegel, ужасы, триллер, ...
  • Информация
    Посетители, находящиеся в группе Гости, не могут оставлять комментарии к данной публикации.