вход на сайт

Имя пользователя :
Пароль :

Восстановление пароля Регистрация
Римская империя: Август / Imperium: Augustus (Роджер Янг, драма, мелодрама, военный, история, 2003) [DVDRip-AVC, Профессиональный (двухголосый закадровый) + Оригинал + Sub]
Рейтинг:
(голосов: 1)



[img]{THEME}/images/logopost.png[/img]



Римская империя: Август / Imperium: Augustus
«As the empire kneeled in defeat, one man stood in triumph.»

Год выпуска: 2003
Страна: Германия Франция Великобритания Италия Испания Австрия
Производство: UK EOS Entertainment, Lux Vide Radiotelevisione Italiana,Telecinco,
Жанр: драма, мелодрама, военный, история

Режиссёр: Роджер Янг
В ролях: Питер О’Тул, Шарлотта Рэмплинг, Виттория Бельведер, Бенжамин Сэдлер, Кен Дюкен, Расселл Барр, Хуан Диего Ботто, Мартина Стелла, Валерия Д’Обичи, Мишель Бевилакуа

Перевод: Профессиональный (двухголосый закадровый) | R5 + Оригинал
Субтитры: русские, английские

Описание: После смерти Гая Юлия Цезаря, Рим остался без прямого наследника. Марк Антоний предпринял попытку захватить власть в свои руки. Однако ситуация осложнялась тем, что в завещании Цезарь объявил наследником своего приемного сына — Гая Октавия.

Борьба двух претендентов на верховную власть привела к войне, которая завершилась сокрушительным поражением объединенных армий Антония и его жены Клеопатры. Побежденные бежали в Египет, но уже через год войска Октавиана взяли Александрию, и влюбленные покончили жизнь самоубийством. Наследник Цезаря вернулся в Рим триумфатором. Сенат избрал его консулом и дал имя Август.Дата премьеры (мир): 30 ноября 2003
Качество: DVDRip-AVC
Продолжительность: 02:50:47

Автор рипа: Enclave76

Формат: MKV
Видео кодек: AVC
Аудио кодек: AC3
Видео: [email protected] (4:3), 25 fps, AVC ~2350 Kbps, 0.22 bit/pixel
Аудио: 48 kHz, AC3, 6 ch, ~448.00 kbps avg - Профессиональный (двухголосый закадровый) R5
Аудио: 48 kHz, AC3, 6 ch, ~448.00 kbps avg - Оригинал

Mediainfo ▼General
Complete name : E:...Imperium.Augustus.2003.PAL.DVDRip.x264.AC3.Rus.Eng-E76.mkv
Format : Matroska
Format version : Version 2
File size : 3.88 GiB
Duration : 2h 50mn
Overall bit rate : 3 255 Kbps
Movie name : Imperium.Augustus.2003.PAL.DVDRip.x264.AC3.Rus.Eng-E76
Encoded date : UTC 2012-03-31 12:13:21
Writing application : mkvmerge v5.2.1 (A Far Off Place) built on Jan 2 2012 23:21:10
Writing library : libebml v1.2.3 + libmatroska v1.3.0
Video
ID : 1
Format : AVC
Format/Info : Advanced Video Codec
Format profile : [email protected]
Format settings, CABAC : Yes
Format settings, ReFrames : 14 frames
Codec ID : V_MPEG4/ISO/AVC
Duration : 2h 50mn
Bit rate : 2 294 Kbps
Width : 716 pixels
Height : 574 pixels
Display aspect ratio : 4:3
Original display aspect ratio : 5:4
Frame rate : 25.000 fps
Color space : YUV
Chroma subsampling : 4:2:0
Bit depth : 8 bits
Scan type : Progressive
Bits/(Pixel*Frame) : 0.223
Stream size : 2.74 GiB (70%)
Title : Encode by Enclave76 for rutracker.org
Writing library : x264 core 122 r2183kMod c522ad1
Encoding settings : cabac=1 / ref=14 / deblock=1:-3:-2 / analyse=0x3:0x133 / me=umh / subme=11 / psy=1 / fade_compensate=0.00 / psy_rd=1.00:0.07 / mixed_ref=1 / me_range=48 / chroma_me=1 / trellis=2 / 8x8dct=1 / cqm=0 / deadzone=21,11 / fast_pskip=1 / chroma_qp_offset=-3 / threads=6 / sliced_threads=0 / nr=0 / decimate=1 / interlaced=0 / bluray_compat=0 / constrained_intra=0 / bframes=12 / b_pyramid=2 / b_adapt=2 / b_bias=0 / direct=1 / weightb=1 / open_gop=0 / weightp=2 / keyint=250 / keyint_min=25 / scenecut=40 / intra_refresh=0 / rc_lookahead=40 / rc=crf / mbtree=0 / crf=20.0000 / qcomp=0.65 / qpmin=0 / qpmax=69 / qpstep=4 / vbv_maxrate=17500 / vbv_bufsize=14000 / crf_max=0.0 / nal_hrd=none / ip_ratio=1.40 / pb_ratio=1.10 / aq=1:1.00 / zones=252430,256174,q=30
Language : English
Matrix coefficients : BT.470-6 System B, BT.470-6 System G, BT.601-6 625, BT.1358 625, BT.1700 625 PAL, BT.1700 625 SECAM, IEC 61966-2-4 601
Audio #1
ID : 2
Format : AC-3
Format/Info : Audio Coding 3
Mode extension : CM (complete main)
Codec ID : A_AC3
Duration : 2h 50mn
Bit rate mode : Constant
Bit rate : 448 Kbps
Channel(s) : 6 channels
Channel positions : Front: L C R, Side: L R, LFE
Sampling rate : 48.0 KHz
Bit depth : 16 bits
Compression mode : Lossy
Stream size : 547 MiB (14%)
Title :
c7d9002cc9d5adc24bbe99330db5abfc1ed439c5Римская империя: Август / Imperium: Augustus (Роджер Янг, драма, мелодрама, военный, история, 2003) [DVDRip-AVC, Профессиональный (двухголосый закадровый) + Оригинал + Sub] Римская империя: Август / Imperium: Augustus (Роджер Янг, драма, мелодрама, военный, история, 2003) [DVDRip-AVC, Профессиональный (двухголосый закадровый) + Оригинал + Sub] " />

Аплоадер: Админ, дата: 28-05-2012, 19:51, торрент скачан: 359 раз

Понравилась раздача? Посмотрите эти:
  • Сыщик / Sleuth (Кеннет Брэна, Триллер, драма, детектив, 2007) [BDRip-AVC, П ...
  • Железная леди / The Iron Lady (Филлида Ллойд, драма, биография, история, 20 ...
  • Битва за Англию / Battle of Britain (Гай Хэмилтон, Боевик, драма, военный, ...
  • Запретная любовь / The Edge of Love (Джон Мэйбери, Драма, мелодрама, военны ...
  • Гайд-Парк на Гудзоне / Hyde Park on Hudson (Роджер Мишелл, драма, комедия, ...
  • Римская империя: Август / Imperium: Augustus (Роджер Янг, Исторический, Дра ...
  • Цельнометаллическая оболочка / Full Metal Jacket (Стэнли Кубрик, драма, вое ...
  • Аноним / Anonymous (Роланд Эммерих, триллер, драма, 2011) [BDRip-AVC, Профе ...
  • Мартовские иды / The Ides of March (Джордж Клуни / George Clooney, драма, 2 ...
  • Воспоминания об убийстве / Memories of Murder / Salinui chueok (Бон Чун Хо, ...
  • Все самое лучшее / All Good Things (Эндрю Джареки, триллер, драма, мелодрам ...
  • Убить короля / To Kill a King (Майк Баркер, Драма, исторический, 2003) [BDR ...
  • Сладкий ноябрь / Sweet November (Пэт О’Коннор, драма, мелодрама, 2001) [DVD ...
  • Убить короля / To Kill a King (Майк Баркер, Драма, исторический, 2003) [BDR ...
  • И в бедности и в богатстве / For Richer of Poorer (Брайан Спайсер, комедия ...
  • Жизнь прекрасна / La Vita è bella (Роберто Бениньи, Драма, мелодрама, комед ...
  • Далеко-далеко / Far and Away (Рон Ховард, драма, мелодрама, приключения, ве ...
  • Три метра над уровнем неба / Tres metros sobre el cielo (Фернандо Гонзалез ...
  • Mylene Farmer / Du Temps [2011, Pop, HDTVRip]
  • Mylene Farmer / Bleu Noir [2011, Pop, HDTVRip]
  • Информация
    Посетители, находящиеся в группе Гости, не могут оставлять комментарии к данной публикации.