вход на сайт

Имя пользователя :
Пароль :

Восстановление пароля Регистрация
Испытание королевского стрелка Шарпа / Sharpes Challenge (Том Клегг, приключения, 2006) [BDRip, Профессиональный (многоголосый, закадровый) ]
Рейтинг:
(голосов: 1)



[img]{THEME}/images/logopost.png[/img]



♥ Испытание королевского стрелка Шарпа / Sharpes Challenge ♥

♥ Год выпуска: 2006
♥ Страна: Великобритания
♥ Производство: Kudos Film
♥ Жанр: Боевик, приключения, военный, история

♥ Режиссёр: Том Клегг
♥ В ролях: Шон Бин, Дара О’Мэлли, Тоби Стивенс, Падма Лакшми, Орельен Рекуан, Люси Браун, Майкл Кокрейн, Али Кхан, Хью Фрейзер, Питер-Хьюго Дэйли

♥ Перевод: Профессиональный (многоголосый, закадровый)
♥ Субтитры: Нет

♥ Описание: 1817 год. Прошло всего два года с момента, когда Наполеон был окончательно разгромлен в битве при Ватерлоо. Но для настоящих солдат империи всегда найдется работа. На этот раз Ричард Шарп отправляется в Индию. Ему предстоит выяснить, какие козни против британской короны замышляет один из тамошних наследных принцев. По прибытии в штат Раджастан бравого стрелка ждет неприятный сюрприз. Похищена дочь генерал-губернатора. Все силы брошены на поиски. Между тем обстановка все больше накаляется, зреют повстанческие настроения, и миссия становится все менее выполнимой…

IMDB: рейтинг 7.60 (1 116)
КиноПоиск: рейтинг 7.373 (77)
Автор рипа: ExKinoRay

♥ Качество: BDRip
♥ Продолжительность: 01:45:00 час
"Media Info" ▼TextC:UsersÍóðáåêDownloadsIspytanie.korolevskogo.strelka.Sharpa.2006.XviD.BDRip-ExKinoRay.avi
General
Complete name : C:UsersÍóðáåêDownloadsIspytanie.korolevskogo.strelka.Sharpa.2006.XviD.BDRip-ExKinoRay.avi
Format : AVI
Format/Info : Audio Video Interleave
File size : 1.47 GiB
Duration : 1h 45mn
Overall bit rate : 1 989 Kbps
Writing application : VirtualDubMod 1.5.10.3 | www.virtualdub-fr.org || (build 2550/release)
Writing library : VirtualDubMod build 2550/release
Video #0
ID : 0
Format : MPEG-4 Visual
Format profile : Advanced [email protected]
Format settings, BVOP : Yes
Format settings, QPel : No
Format settings, GMC : No warppoints
Format settings, Matrix : Default (H.263)
Codec ID : XVID
Codec ID/Hint : XviD
Duration : 1h 45mn
Bit rate : 1 532 Kbps
Width : 720 pixels
Height : 400 pixels
Display aspect ratio : 16:9
Frame rate : 23.976 fps
Resolution : 8 bits
Colorimetry : 4:2:0
Scan type : Progressive
Bits/(Pixel*Frame) : 0.222
Stream size : 1.13 GiB (77%)
Writing library : XviD 1.2.1 (UTC 2008-12-04)
Audio #1
ID : 1
Format : AC-3
Format/Info : Audio Coding 3
Format_Settings_ModeExtension : CM (complete main)
Codec ID : 2000
Duration : 1h 45mn
Bit rate mode : Constant
Bit rate : 448 Kbps
Channel(s) : 6 channels
Channel positions : Front: L C R, Side: L R, LFE
Sampling rate : 48.0 KHz
Stream size : 339 MiB (23%)
Alignment : Split accross interleaves
Interleave, duration : 42 ms (1.00 video frame)
Interleave, preload duration : 500 ms
♥ Формат: AVI
♥ Видео кодек: XviD
♥ Аудио кодек: AC3
♥ Видео: 720x400 (16:9), XviD, 23.976 fps, 1532 Kbps, 0.222 Bits/Pixel
♥ Аудио: 48.0 KHz,AC3, 6 channels, 448 Кбит/с
&nbs
110af4e903ce041fd71ce74c7c34267012d8f179Испытание королевского стрелка Шарпа / Sharpes Challenge (Том Клегг, приключения, 2006) [BDRip, Профессиональный (многоголосый, закадровый) ] Испытание королевского стрелка Шарпа / Sharpes Challenge (Том Клегг, приключения, 2006) [BDRip, Профессиональный (многоголосый, закадровый) ] " />

Аплоадер: Админ, дата: 12-05-2012, 22:58, торрент скачан: 359 раз

Понравилась раздача? Посмотрите эти:
  • Вирус / Flu (Ким Сон Су, Драма, 2013) [HDTVRip, Любительский (двухголосый з ...
  • Орудие смерти / A-i-deul... (Ли Гю Ман, Триллер, криминал, 2011) [DVDRip, П ...
  • Короткометражка Marvel: Агент Картер / Marvel One-Shot: Agent Carter (Луис ...
  • Мужество / Wymyk (Грег Зглински, драма, 2011) [DVDRip, Любительский (одного ...
  • 42 / 42 (Брайан Хелгеленд, драма, биография, спорт, 2013) [BDRip, Профессио ...
  • Спайдервик: Хроники / The Spiderwick Chronicles (Марк С. Уотерс, Фэнтези, п ...
  • МЫ. Верим в любовь / W.E. (Мадонна, Драма, мелодрама, история, 2011) [BDRip ...
  • Псы войны / The Dogs of War (Джон Ирвин, боевик, драма, приключения, военны ...
  • Тюремщик / Screwed (Рег Тревисс / Reg Traviss, Драма, 2011) [DVDRip , Люби ...
  • Плохая актриса / Bad Actress (Роберт Ли Кинг, комедия, 2011) [DVDRip, Профе ...
  • Без всего / Sin ella (Джордже Колон, Мелодрама, 2010) [HDTVRip , Профессион ...
  • Риск стрелка Шарпа / Sharpes Peril (Том Клегг, боевик, драма, приключения, ...
  • Супер циклон / Super Cyclone (Лиз Адамс / Liz Adams, боевик, 2012) [HDRip, ...
  • Захват / Carjacked (Джон Бонито, триллер, 2011)[BDRip, Профессиональный (мн ...
  • Формула 1 2011 / Этап 17 из 19 / Гран-При Индии / Гонка / Спорт 1 [30.10.20 ...
  • Дом вверх дном / Bringing Down the House (Адам Шенкман, комедия, 2003) [BDR ...
  • Неделя в NBA с В.Гомельским / НТВ+ [28.06.2011, SD, XviD, RU, SAT]
  • Последний отпуск / Last Holiday (Уэйн Ван, Драма, комедия, приключения, 200 ...
  • Трус / Faintheart (Вито Рокко, Комедия, 2008) [BDRip, Профессиональный (дву ...
  • Романтики / The Romantics (Галт Нидерхоффер, Драма, мелодрама, комедия, 201 ...
  • Полусвет / Half Light (Крэйг Розенберг, Ужасы, триллер, драма, детектив, 20 ...
  • Супершторм в Сиэтле / Seattle Superstorm (Джейсон Бурк, фантастика, боевик ...
  • Инкубус / Inkubus (Гленн Чиано, Ужасы, 2011) [DVDRip, Профессиональный (мно ...
  • Воин Севера / Jadesoturi (Анти-Юсси Аннила, Фэнтези, Драма, Приключения, 20 ...
  • Искажение / Skew (Сейв Челенз, ужасы, триллер, 2011) [HDRip, Профессиональн ...
  • Информация
    Посетители, находящиеся в группе Гости, не могут оставлять комментарии к данной публикации.