вход на сайт

Имя пользователя :
Пароль :

Восстановление пароля Регистрация
Убить короля / To Kill a King (Майк Баркер, Драма, исторический, 2003) [BDRip-AVC, Профессиональный (двухголосый закадровый) + Оригинал + Sub]
Рейтинг:
(голосов: 1)



[img]{THEME}/images/logopost.png[/img]



Убить короля / To Kill a King
«It takes a brother and a hero...»

Год выпуска: 2003
Страна: Германия Великобритания
Производство: Studio Film
Жанр: драма, военный

Режиссёр: Майк Баркер
В ролях: Тим Рот, Дугрэй Скотт, Руперт Эверетт, Оливия Уильямс, Джеймс Болэм, Корин Рэдгрейв, Финбар Линч, Джулиан Райнд-Татт, Адриан Скарборо, Джереми Свифт

Перевод: Профессиональный (двухголосый закадровый) (Парадиз) + Оригинал
Субтитры: Русские, английские

Описание: Англия, 1645 год. Близится к концу кровопролитная Гражданская война. Одержав победу над войсками тирана Карла I, великие полководцы Фейрфакс и Кромвель намерены восстановить из пепла разрушенную страну и вернуть народу долгожданный мир. Но когда стихает грохот пушек, за дело берется политика, вбивая клин отчуждения между верными друзьями.

Решительный лорд Кромвель хочет казнить короля, но дипломатичный Томас Фейрфакс, над которым довлеет его властная жена-монархистка, предпочитает сделку с парламентом. Не рассчитывая на помощь Фейрфакса, Кромвель решает в одиночку вершить судьбу своего государства…



Релиз от:
Автор рипа: Enclave76

Качество: BDRip-AVC
Продолжительность: 01:42:19 час.

Формат: MKV
Видео кодек: AVC
Аудио кодек: AC3
Видео: 1120x476 (2.35:1), 23.976 fps, AVC ~3360 kbps avg, 0.256 bit/pixel
Аудио: 48.0 KHz, AC3, 6 ch, 448 kbps | Russian (DVO)
Аудио: 48.0 KHz, AC3, 6 ch, 448 kbps | English

Премьера (мир): 15 мая 2003
Премьера (РФ): 9 октября 2003, «Парадиз», «Пан Терра»
Mediainfo ▼General
Complete name : E:...To.Kill.a.King.2003.BDRip.x264.AC3.Rus.Eng-tRuAVC.mkv
Format : Matroska
Format version : Version 2
File size : 3.05 GiB
Duration : 1h 42mn
Overall bit rate : 4 254 Kbps
Movie name : To.Kill.a.King.2003.BDRip.x264.AC3.Rus.Eng-tRuAVC
Encoded date : UTC 2011-11-05 23:23:09
Writing application : mkvmerge v5.0.1 (Es ist Sommer) built on Oct 9 2011 11:55:43
Writing library : libebml v1.2.2 + libmatroska v1.3.0
Video
ID : 1
Format : AVC
Format/Info : Advanced Video Codec
Format profile : [email protected]
Format settings, CABAC : Yes
Format settings, ReFrames : 12 frames
Codec ID : V_MPEG4/ISO/AVC
Duration : 1h 42mn
Bit rate : 3 274 Kbps
Width : 1 120 pixels
Height : 476 pixels
Display aspect ratio : 2.35:1
Frame rate : 23.976 fps
Color space : YUV
Chroma subsampling : 4:2:0
Bit depth : 8 bits
Scan type : Progressive
Bits/(Pixel*Frame) : 0.256
Stream size : 2.34 GiB (77%)
Title : Encode by [email protected] for rutracker.org
Writing library : x264 core 119 r2106kMod 07efeb4
Encoding settings : cabac=1 / ref=12 / deblock=1:-3:-3 / analyse=0x3:0x113 / me=umh / subme=11 / psy=1 / fade_compensate=0.00 / psy_rd=0.90:0.20 / mixed_ref=1 / me_range=32 / chroma_me=1 / trellis=2 / 8x8dct=1 / cqm=0 / deadzone=21,11 / fast_pskip=1 / chroma_qp_offset=-3 / threads=4 / sliced_threads=0 / nr=0 / decimate=1 / interlaced=0 / bluray_compat=0 / constrained_intra=0 / bframes=14 / b_pyramid=2 / b_adapt=2 / b_bias=0 / direct=1 / weightb=1 / open_gop=0 / weightp=2 / keyint=250 / keyint_min=23 / scenecut=40 / intra_refresh=0 / rc_lookahead=120 / rc=crf / mbtree=1 / crf=20.8000 / qcomp=0.85 / qpmin=0 / qpmax=69 / qpstep=4 / vbv_maxrate=50000 / vbv_bufsize=62500 / crf_max=0.0 / nal_hrd=none / ip_ratio=1.10 / aq=3:0.80 / zones=140600,147192,q=35
Language : English
Matrix coefficients : BT.709-5, BT.1361, IEC 61966-2-4 709, SMPTE RP177
Audio #1
ID : 2
Format : AC-3
Format/Info : Audio Coding 3
Mode extension : CM (complete main)
Codec ID : A_AC3
Duration : 1h 42mn
Bit rate mode : Constant
Bit rate : 448 Kbps
Channel(s) : 6 channels
Channel positions : Front: L C R, Side: L R, LFE
Sampling rate : 48.0 KHz
Bit depth : 16 bits
Compression mode : Lossy
Stream size : 328 MiB (11%)
Title : DVO Paradise
Language : Russian
Audio #2
ID : 3
Format : AC-3
Format/Info : Audio Coding 3
Mode extension : CM (complete main)
Codec ID : A_AC3
Duration : 1h 42mn
Bit rate mode : Constant
Bit rate : 448 Kbps
Channel(s) : 6 channels
Channel positions : Front:
2c34b37e99d8c95e1221203585ea82ee05c71b77Убить короля / To Kill a King (Майк Баркер, Драма, исторический, 2003) [BDRip-AVC, Профессиональный (двухголосый закадровый) + Оригинал + Sub] Убить короля / To Kill a King (Майк Баркер, Драма, исторический, 2003) [BDRip-AVC, Профессиональный (двухголосый закадровый) + Оригинал + Sub] " />

Аплоадер: Админ, дата: 28-04-2012, 04:31, торрент скачан: 359 раз

Понравилась раздача? Посмотрите эти:
  • Сыщик / Sleuth (Кеннет Брэна, Триллер, драма, детектив, 2007) [BDRip-AVC, П ...
  • Железная леди / The Iron Lady (Филлида Ллойд, драма, биография, история, 20 ...
  • Джекпот / Arme Riddere (Магнус Мартенс, Боевик, комедия, криминал, 2011) [B ...
  • Убить по расписанию / Ticking Clock (Эрни Барбараш, фантастика, боевик, три ...
  • Цельнометаллическая оболочка / Full Metal Jacket (Стэнли Кубрик, драма, вое ...
  • Аноним / Anonymous (Роланд Эммерих, триллер, драма, 2011) [BDRip-AVC, Профе ...
  • Мартовские иды / The Ides of March (Джордж Клуни / George Clooney, драма, 2 ...
  • Мартовские иды / The Ides of March (Джордж Клуни / George Clooney, драма, 2 ...
  • Воспоминания об убийстве / Memories of Murder / Salinui chueok (Бон Чун Хо, ...
  • Персонаж / Stranger Than Fiction (Марк Форстер, Комедия, драма, фантастика, ...
  • Обряд / The Rite (Микаэль Хафстрем, ужасы, триллер, драма, 2011) [BDRip-AVC ...
  • Все самое лучшее / All Good Things (Эндрю Джареки, триллер, драма, мелодрам ...
  • Убить короля / To Kill a King (Майк Баркер, Драма, исторический, 2003) [BDR ...
  • Миссия невыполнима: Протокол Фантом / Mission: Impossible - Ghost Protocol ...
  • На грани / Man on a Ledge (Асгер Лет, триллер, криминал, 2012) [BDRip-AVC, ...
  • Римская империя: Август / Imperium: Augustus (Роджер Янг, драма, мелодрама, ...
  • Проект X: Дорвались / Project X (Нима Нуризаде, комедия, 2012) [BDRip-AVC, ...
  • Большая игра / State of Play (Кевин МакДональд / Kevin McDonald, триллер, д ...
  • Апокалипсис сегодня / Apocalypse Now (Френсис Форд Коппола / Francis Ford C ...
  • Убойное Рождество Гарольда и Кумара / A Very Harold & Kumar 3D Christmas (Т ...
  • Учитель на замену / Detachment (Тони Кэй, драма, 2011) [BDRip 720р, Професс ...
  • Закон доблести / Act of Valor (Майк МакКой, Скотт Во, боевик, триллер, прик ...
  • Mylene Farmer / Du Temps [2011, Pop, HDTVRip]
  • Mylene Farmer / Bleu Noir [2011, Pop, HDTVRip]
  • PBS: Природа – Гималаи / PBS: Nature – The Himalayas (Крис Морган, Докумен ...
  • Информация
    Посетители, находящиеся в группе Гости, не могут оставлять комментарии к данной публикации.