вход на сайт

Имя пользователя :
Пароль :

Восстановление пароля Регистрация
Ярослав. Тысячу лет назад (Дмитрий Коробкин,приключения, история, 2010) [BDRip-AVC, Не требуется]
Рейтинг:
(голосов: 1)



[img]{THEME}/images/logopost.png[/img]



Ярослав. Тысячу лет назад
«Millenium ago Russian land»

Год выпуска: 2010
Страна: Россия
Производство: Анно Домини
Жанр: приключения, история

Режиссёр: Дмитрий Коробкин
В ролях: Александр Ивашкевич (князь Ярослав), Алексей Кравченко (Харальд), Светлана Чуйкина (Райда), Валерий Золотухин (Чурила), Виктор Вержбицкий (Святозар), Елена Плаксина (Желана), Борис Токарев (Мелей), Владимир Антоник (Вышата), Юрий Ваксман (Будый), Павел Хрулев (Венд), Константин Милованов (Будимир), Дмитрий Уросов (1-й воин), Денис Ясик (2-й воин), Кирилл Болтаев (Невзор), Константин Адаев, Роман Курцын (Ставко), Евгений Стычкин ...

Перевод: Не требуется
Субтитры: Отсутствуют

Описание: Киевская Русь, начало второго тысячелетия. Ростовские земли полыхают от межплеменных войн. В лесах, по дорогам и рекам хозяйничают разбойничьи ватаги. Разбойники продают людей Хазарам, которые сплавляют рабов в низовья Волги для перепродажи.

Чтобы остановить работорговлю молодому Князю Ярославу предстоит объединить земли и народы Ростова. Победить врага можно только преодолев предубеждения и остановив религиозные и этнические конфликты внутри княжества.

На месте уничтоженного разбойничьего логова Ярослав основывает город, который позже люди назовут его именем.
"Знаете ли вы, что..." ▼Фильм снят к 1000-летию города Ярославля.


Качество: BDRip-AVC (Blu-Ray Disc)
Продолжительность: 01:43:27 час.

Формат: MKV
Видео кодек: AVC
Аудио кодек: AC3 Dolby Digital
Видео: 1120x476 (2.35:1), 23.976 fps, AVC ~3 000 kbps avg, 0.235 bit/pixel
Аудио: 48 kHz, AC3 Dolby Digital, 3/2 (L,C,R,l,r) LFE ch, ~640 kbps

Премьера (мир): 14 октября 2010
Премьера (РФ): 14 октября 2010, «Двадцатый Век Фокс СНГ»
Mediainfo ▼General
Complete name :Yaroslav.1000.Let.Nazad.BDRip.2010.x264.AC3.Rus.mkv
Format : Matroska
File size : 2.63 GiB
Duration : 1h 43mn
Overall bit rate : 3 631 Kbps
Movie name : Ярослав. 1000 лет назад :: 2010 :: BDRip by duk
Encoded date : UTC 2011-01-23 18:03:20
Writing application : mkvmerge v4.4.0 (Die Wiederkehr) сборка от Oct 31 2010 21:52:48
Writing library : libebml v1.0.0 + libmatroska v1.0.0
Video
ID : 1
Format : AVC
Format/Info : Advanced Video Codec
Format profile : [email protected]
Format settings, CABAC : Yes
Format settings, ReFrames : 15 frames
Codec ID : V_MPEG4/ISO/AVC
Duration : 1h 43mn
Bit rate : 3 000 Kbps
Width : 1 120 pixels
Height : 476 pixels
Display aspect ratio : 2.35:1
Frame rate : 23.976 fps
Color space : YUV
Chroma subsampling : 4:2:0
Bit depth : 8 bits
Scan type : Progressive
Bits/(Pixel*Frame) : 0.235
Stream size : 2.12 GiB (80%)
Title : [email protected] MPEG-4 part 10 (AVC)
Writing library : x264 core 112 r1867 22bfd31
Encoding settings : cabac=1 / ref=15 / deblock=1:-3:-2 / analyse=0x3:0x133 / me=umh / subme=10 / psy=1 / psy_rd=1.00:0.10 / mixed_ref=1 / me_range=32 / chroma_me=1 / trellis=2 / 8x8dct=1 / cqm=0 / deadzone=21,11 / fast_pskip=0 / chroma_qp_offset=-3 / threads=6 / sliced_threads=0 / nr=0 / decimate=1 / interlaced=0 / constrained_intra=0 / bframes=13 / b_pyramid=2 / b_adapt=2 / b_bias=0 / direct=3 / weightb=1 / open_gop=0 / weightp=2 / keyint=250 / keyint_min=23 / scenecut=40 / intra_refresh=0 / rc_lookahead=80 / rc=2pass / mbtree=1 / bitrate=3000 / ratetol=1.0 / qcomp=0.60 / qpmin=10 / qpmax=50 / qpstep=4 / cplxblur=20.0 / qblur=0.5 / ip_ratio=1.40 / aq=1:1.00
Language : Russian
Color primaries : BT.709-5, BT.1361, IEC 61966-2-4, SMPTE RP177
Transfer characteristics : BT.709-5, BT.1361
Matrix coefficients : BT.709-5, BT.1361, IEC 61966-2-4 709, SMPTE RP177
Audio
ID : 2
Format : AC-3
Format/Info : Audio Coding 3
Mode extension : CM (complete main)
Codec ID : A_AC3
Duration : 1h 43mn
Bit rate mode : Constant
Bit rate : 640 Kbps
Channel(s) : 6 channels
Channel positions : Front: L C R, Side: L R, LFE
Sampling rate : 48.0 KHz
Bit depth : 16 bits
Compression mode : Lossy
Stream size : 475 MiB (18%)
T
b303b6178806adde1b2225c309469933b9b67987Ярослав. Тысячу лет назад (Дмитрий Коробкин,приключения, история, 2010) [BDRip-AVC, Не требуется] Ярослав. Тысячу лет назад (Дмитрий Коробкин,приключения, история, 2010) [BDRip-AVC, Не требуется] " />

Аплоадер: Админ, дата: 20-04-2012, 23:03, торрент скачан: 359 раз

Понравилась раздача? Посмотрите эти:
  • Снова ты / You Again (Энди Фикмен, Мелодрама, комедия, 2010) [BDRip-AVC, Пр ...
  • UFC - Best Of 2012 Year In Review[MMA,2013, BDRip 540p]
  • Запрещенная реальность (Константин Максимов, фантастика, боевик, 2009) [BDR ...
  • [3D] Panasonic Demo Disc 3D 2010-2011 [BDrip-AVC 1080p-720p][Оригинал][Anam ...
  • Ю-571 / U-571 (Джонатан Мостоу, Боевик, 2000) [BDRip - AVC, Дубляж + Субтит ...
  • Футбольный клуб / Чемпионат Европы 2012 / НТВ+ [Футбол, 08.06.2012, HDTVRip ...
  • Чемпионат Европы 2012 / Группа C / 1-й тур / Ирландия — Хорватия / Спорт 1 ...
  • Английская Премьер-Лига 2012-13 / Тур 20 / Арсенал - Ньюкасл Юнайтед [футбо ...
  • Лето волков // эпизоды с 1 по 6 (из 6) (драма, военный, 2011) [BDRip - AV ...
  • Jon Anderson / The Contemporary Youth Orchestra [2010, Art-Rock, Contempora ...
  • Mylene Farmer / Du Temps [2011, Pop, HDTVRip]
  • Mylene Farmer / Bleu Noir [2011, Pop, HDTVRip]
  • Ярослав. Тысячу лет назад (Дмитрий Коробкин, приключения, история, 2010) [D ...
  • Ярослав. Тысячу лет назад (Дмитрий Коробкин , приключения, история, 2010 ) ...
  • Ярослав. Тысячу лет назад (Дмитрий Коробкин, приключения, история, 2010) [B ...
  • Ярослав. Тысячу лет назад (Дмитрий Коробкин, приключения, история, 2010) [H ...
  • Собачье сердце (Владимир Бортко, фантастика, драма, комедия, 1988) [BDRip 1 ...
  • Ярослав. Тысячу лет назад (Дмитрий Коробкин,приключения, история, 2010) [HD ...
  • The Dream Team - NBA TV Documentary [Баскетбол,13.06.2012, HDTVRip/720p, MP ...
  • Церемония открытия летних Олимпийских игр 2012 в Лондоне. НТВ + [27.08.2012 ...
  • Информация
    Посетители, находящиеся в группе Гости, не могут оставлять комментарии к данной публикации.