вход на сайт

Имя пользователя :
Пароль :

Восстановление пароля Регистрация
Вальгалла: Сага о викинге / Valhalla Rising (Николас Виндинг Рёфн, боевик, приключения, 2009) [BDRip-AVC, Профессиональный (многоголосый, закадровый) + Авторский (одноголосый закадровый) + Оригинал +Sub]
Рейтинг:
(голосов: 1)



[img]{THEME}/images/logopost.png[/img]



Вальгалла: Сага о викинге / Valhalla Rising
«Тайны неизведанных земель...»

Год выпуска: 2009
Страна: Дания Великобритания
Производство: Wild Side Films, Le Pacte, Dragon Digital Intermediate
Жанр: боевик, приключения, история

Режиссёр: Николас Виндинг Рёфн
В ролях: Мадс Миккельсен, Маартен Стивен, Гордон Браун, Эндрю Флэнеган, Гари Льюис, Гари МакКормак, Александр Мортон, Джэми Сивз, Ивэн Стюарт, Мэтью Заяц

Перевод: Профессиональный (многоголосый, закадровый) + Авторский (одноголосый закадровый) (Д. Строев) + Оригинал
Субтитры: Русские, Английские

Описание: Фильм о немом воине, которого называли Один Глаз. Он обладал сверхъестественной силой и многие считали его норвежским вождем Бардом.
"Знаете ли вы, что..." ▼Съемки фильма проходили в Шотландии.


Релиз от :
Автор рипа : POD)I(EP

Качество: BDRip-AVC (BD-Remux)
Продолжительность: 01:32:44 час.

Формат: MKV
Видео кодек: AVC
Аудио кодек: AC3
Видео: 1260x536 (2.35:1), 23,976 fps, AVC ~2 689 kbps, 0.166 bit/pixel
Аудио: 48 kHz, AC3, 6 ch, ~448 kbps| Russian (MVO)
Аудио: 48 kHz, AC3, 6 ch, ~448 kbps| Russian (AVO)
Аудио: 48 kHz, AC3, 6 ch, ~448 kbps| English

Премьера (мир): 4 сентября 2009
Mediainfo ▼General
Complete name : C:FilmsValhalla.Rising.2009.BDRip.x264.ac3.srt.tRuAVC.mkv
Format : Matroska
File size : 2.67 GiB
Duration : 1h 32mn
Overall bit rate : 4 115 Kbps
Encoded date : UTC 2010-08-10 16:40:22
Writing application : mkvmerge v3.4.0 (Rapunzel) built on May 15 2010 09:38:20
Writing library : libebml v0.8.0 + libmatroska v0.9.0
Video
ID : 1
Format : AVC
Format/Info : Advanced Video Codec
Format profile : [email protected]
Format settings, CABAC : Yes
Format settings, ReFrames : 12 frames
Muxing mode : Container [email protected]
Codec ID : V_MPEG4/ISO/AVC
Duration : 1h 32mn
Bit rate : 2 689 Kbps
Width : 1 260 pixels
Height : 536 pixels
Display aspect ratio : 2.35:1
Frame rate : 23.976 fps
Resolution : 8 bits
Colorimetry : 4:2:0
Scan type : Progressive
Bits/(Pixel*Frame) : 0.166
Stream size : 1.74 GiB (65%)
Writing library : x264 core 104 r1675 2484aa0
Encoding settings : cabac=1 / ref=12 / deblock=1:-3:-2 / analyse=0x3:0x113 / me=umh / subme=10 / psy=1 / psy_rd=0.90:0.10 / mixed_ref=1 / me_range=32 / chroma_me=1 / trellis=2 / 8x8dct=1 / cqm=0 / deadzone=21,11 / fast_pskip=1 / chroma_qp_offset=-3 / threads=4 / sliced_threads=0 / nr=0 / decimate=1 / interlaced=0 / constrained_intra=0 / bframes=12 / b_pyramid=2 / b_adapt=2 / b_bias=0 / direct=1 / weightb=1 / open_gop=0 / weightp=2 / keyint=250 / keyint_min=23 / scenecut=40 / intra_refresh=0 / rc=crf / mbtree=0 / crf=18.8 / qcomp=0.72 / qpmin=10 / qpmax=51 / qpstep=4 / ip_ratio=1.20 / pb_ratio=1.10 / aq=2:0.90
Language : English
Matrix coefficients : BT.709-5, BT.1361, IEC 61966-2-4 709, SMPTE RP177
Audio #1
ID : 2
Format : AC-3
Format/Info : Audio Coding 3
Codec ID : A_AC3
Duration : 1h 32mn
Bit rate mode : Constant
Bit rate : 448 Kbps
Channel(s) : 6 channels
Channel positions : Front: L C R, Surround: L R, LFE
Sampling rate : 48.0 KHz
Stream size : 297 MiB (11%)
Title : MVO
Language : Russian
Audio #2
ID : 3
Format : AC-3
Format/Info : Audio Coding 3
Codec ID : A_AC3
Duration : 1h 32mn
Bit rate mode : Constant
Bit rate : 448 Kbps
Channel(s) : 6 channels
Channel positions : Front: L C R, Surround: L R, LFE
Sampling rate : 48.0 KHz
Stream size : 297 MiB (11%)
Title : Stroev
Language : Russian
Audio #3
ID : 4
Format : AC-3
Format/Info : Audio Coding 3
Codec ID : A_AC3
Duration : 1h 32mn
Bit rate mode : Constant
Bit rate : 448 Kbps
Channel(s) : 6 channels
Channel positions : Front: L C R, Surround: L R, LFE
Sampling rate : 48.0 KHz
Stream size : 297 MiB (11%)
Language : English
Text #1
ID : 5
Format : UTF-8
Codec ID : S_TEXT/UTF8
Codec ID/Info : UTF-8 Plain Text
Language : Russian
Text #2
ID : 6
Format : UTF-8
Codec
2342281ba71f27203ea734ad4df6d92555139448Вальгалла: Сага о викинге / Valhalla Rising (Николас Виндинг Рёфн, боевик, приключения, 2009) [BDRip-AVC, Профессиональный (многоголосый, закадровый) + Авторский (одноголосый закадровый) + Оригинал +Sub] Вальгалла: Сага о викинге / Valhalla Rising (Николас Виндинг Рёфн, боевик, приключения, 2009) [BDRip-AVC, Профессиональный (многоголосый, закадровый) + Авторский (одноголосый закадровый) + Оригинал +Sub] " />

Аплоадер: Админ, дата: 19-04-2012, 02:22, торрент скачан: 359 раз

Понравилась раздача? Посмотрите эти:
  • Погнали! / Getaway (Кортни Соломон, боевик, криминал, 2013) [BDRip 720p, Пр ...
  • Вальгалла: Сага о викинге / Valhalla Rising (Николас Виндинг Рефн, Фэнтези, ...
  • Бронсон / Bronson (Николас Виндинг Рефн, боевик, драма, криминал, биография ...
  • Отдел 13 / Diamant 13 (Гайллз Бэхат, Боевик, триллер, криминал, 2009) [BDRi ...
  • Суррогат / The Sessions (Бен Луин, драма, 2012) [BDRip 720p, Профессиональн ...
  • Убить по расписанию / Ticking Clock (Эрни Барбараш, фантастика, боевик, три ...
  • Солдат Джейн / G.I. Jane (Ридли Скотт, боевик, драма, 1997) [BDRip-AVC, Про ...
  • Цельнометаллическая оболочка / Full Metal Jacket (Стэнли Кубрик, драма, вое ...
  • Дитя человеческое / Children of Men (Альфонсо Куарон, фантастика, триллер, ...
  • Мартовские иды / The Ides of March (Джордж Клуни / George Clooney, драма, 2 ...
  • Остановка / Rest Stop: Dead Ahead (Джон Шибан, ужасы, триллер, 2006) [BDRip ...
  • Трон / Tron (Стивен Лисбергер / Steven Lisberger, фантастика, боевик, прикл ...
  • Повторяющие / Repeaters (Карл Бессай, фантастика, боевик, триллер, драма, к ...
  • Охота за "Красным Октябрём" / The Hunt for "Red October" (Джон МакТирнан, б ...
  • Роб Рой / Rob Roy (Майкл Кейтон-Джонс, боевик, драма, мелодрама, 1995) [BDR ...
  • Звездный десант: Вторжение / Starship Troopers: Invasion (Синдзи Арамаки, м ...
  • Один Дома / Home Alone (Крис Коламбус, комедия, приключения, семейный, 1990 ...
  • Красавчик Джонни / Johnny Handsome (Уолтер Хилл, Триллер, драма, криминал, ...
  • Похищенная / A Lonely Place to Die (Джулиан Джилби, триллер, криминал, прик ...
  • Китайский квартал / Chinatown (Роман Полански, Триллер, драма, криминал, де ...
  • Такси 2 / Taxi 2 (Жерар Кравчик, боевик, комедия, криминал, 2000) [BDRip 72 ...
  • Путешествие на край Вселенной / Journey to the Edge of the Universe (Явар А ...
  • Викинги / Outlander (Ховард МакКейн, Фантастика, боевик, приключения, 2008) ...
  • Вальгалла: Сага о викинге / Valhalla : Rising (Николас Виндинг Рёфн / Nicho ...
  • Вальгалла: Сага о викинге / Valhalla Rising (Николас Виндинг Рёфн / Nicolas ...
  • Информация
    Посетители, находящиеся в группе Гости, не могут оставлять комментарии к данной публикации.