вход на сайт

Имя пользователя :
Пароль :

Восстановление пароля Регистрация
Последний неандерталец / Ao, le dernier Néandertal (Жак Малатье, приключения, история, 2010) [HDRip-AVC, Профессиональный (многоголосый, закадровый)]
Рейтинг:
(голосов: 1)



[img]{THEME}/images/logopost.png[/img]



Последний неандерталец / Ao, le dernier Néandertal

Год выпуска: 2010
Страна: Франция
Производство: Angoa-Agicoa, France Télévision, Canal+ [fr]
Жанр: приключения, история

Режиссёр: Жак Малатье
В ролях: Агие, Хелми Дриди, Илиан Иванов, Весела Казакова, Сара Малатье, Аруна Шилдс, Саймон Пол Саттон, Явор Веселинов...

Перевод: Профессиональный (многоголосый, закадровый)
Субтитры: Отсутствуют

Описание: Эпическая история о приключениях Эо. последнего неандертальца на планете, и прекрасной Аки, представительницы людей разумных. Опытный охотник, приученный выживать в диком мире и сражаться с жуткими хищниками, пытается спасти свою семью от войны с новыми племенами. Но совершенно неожиданно Эо влюбляется. В Аки, девушку из стана своего врага…Дата премьеры (мир): 29 сентября 2010
Качество: HDRip-AVC (Исходник: BDRip 1080p)
Продолжительность: 01:20:04

Релиз от:

Формат: MKV
Видео кодек: x264
Аудио кодек: AC3
Видео: 1024x424 (2.40:1), 24 fps, H264 ~ 2039 kbps avg, 0.196 bit/pixel
Аудио: 48 kHz, 6 channel (Front: L C R, Side: L R, LFE), 448.00 kbps avg
MediaInfo ▼TextОбщее
Полное имя : Poslednij.Neandertalets.2010.HDRip-AVC.1,46GB.mkv
Формат : Matroska
Версия формата : Version 2
Размер файла : 1,46 Гбайт
Продолжительность : 1 ч. 23 м.
Общий поток : 2489 Кбит/сек
Название фильма : Poslednij.Neandertalets.2010.BDRip-AVC-AVP Studio
Дата кодирования : UTC 2012-03-22 06:17:14
Программа кодирования : mkvmerge v5.2.0 (I cant explain) built on Dec 18 2011 18:12:03
Библиотека кодирования : libebml v1.2.3 + libmatroska v1.3.0

Видео
Идентификатор : 1
Формат : AVC
Формат/Информация : Advanced Video Codec
Профиль формата : [email protected]
Параметр CABAC формата : Да
Параметр ReFrames формата : 8 кадров
Идентификатор кодека : V_MPEG4/ISO/AVC
Продолжительность : 1 ч. 23 м.
Битрейт : 2039 Кбит/сек
Ширина : 1024 пикселя
Высота : 424 пикселя
Соотношение сторон : 2,40:1
Частота кадров : 24,000 кадра/сек
Цветовое пространство : YUV
Субдискретизация насыщенности : 4:2:0
Битовая глубина : 8 бит
Тип развёртки : Прогрессивная
Бит/(Пиксели*Кадры) : 0.196
Размер потока : 1,16 Гбайт (80%)
Заголовок : Источник BDRip 1080p
Библиотека кодирования : x264 core 119 r2106 07efeb4
Настройки программы : cabac=1 / ref=8 / deblock=1:-2:-1 / analyse=0x3:0x113 / me=umh / subme=9 / psy=1 / psy_rd=1.00:0.10 / mixed_ref=1 / me_range=32 / chroma_me=1 / trellis=1 / 8x8dct=1 / cqm=0 / deadzone=21,11 / fast_pskip=1 / chroma_qp_offset=-3 / threads=3 / sliced_threads=0 / nr=0 / decimate=1 / interlaced=0 / bluray_compat=0 / constrained_intra=0 / bframes=8 / b_pyramid=2 / b_adapt=1 / b_bias=0 / direct=3 / weightb=1 / open_gop=0 / weightp=0 / keyint=250 / keyint_min=23 / scenecut=40 / intra_refresh=0 / rc_lookahead=60 / rc=2pass / mbtree=1 / bitrate=2039 / ratetol=1.0 / qcomp=0.60 / qpmin=0 / qpmax=69 / qpstep=4 / cplxblur=20.0 / qblur=0.5 / ip_ratio=1.40 / aq=1:1.00
Язык : English
Default : Да
Forced : Нет

Аудио
Идентификатор : 2
Формат : AC-3
Формат/Информация : Audio Coding 3
Расширение режима : CM (complete main)
Идентификатор кодека : A_AC3
Продолжительность : 1 ч. 23 м.
Вид битрейта : Постоянный
Битрейт : 448 Кбит/сек
Каналы : 6 каналов
Расположение каналов : Front: L C R, Side: L R, LFE
Частота : 48,0 КГц
Битовая глубина : 16 бит
Метод сжатия : С потерями
Размер потока : 268 Мбайт (18%)
Заголовок : Источник BDRip 1080p
Язык : Russian
Default : Да
Forced : Нет

Меню
00:00:00.000 : ru:00:00:00.000000000
00:05:00.000 : :00:05:00.000000000
00:10:00.000 : :00:10:00.000000000
00:15:00.000 : :00:15:00.000000000
00:20:00.000 : :00:20:00.000000000
00:25:00.000 : :
a95b63619cd25313c6c265c7622a7e4f6d9ed3deПоследний неандерталец / Ao, le dernier Néandertal (Жак Малатье, приключения, история, 2010) [HDRip-AVC, Профессиональный (многоголосый, закадровый)] Последний неандерталец / Ao, le dernier Néandertal (Жак Малатье, приключения, история, 2010) [HDRip-AVC, Профессиональный (многоголосый, закадровый)] " />

Аплоадер: Админ, дата: 22-03-2012, 21:51, торрент скачан: 359 раз

Понравилась раздача? Посмотрите эти:
  • Бунраку / Bunraku (Гай Моше, боевик, триллер, драма, 2010) [BDRip-AVC, Проф ...
  • Мэрайа Мунди и шкатулка Мидаса / The Adventurer: The Curse of the Midas Box ...
  • Погнали! / Getaway (Кортни Соломон, боевик, криминал, 2013) [BDRip 1080p, П ...
  • Погнали! / Getaway (Кортни Соломон, боевик, криминал, 2013) [BDRip-AVC, Про ...
  • Поймай толстуху, если сможешь [Театральная версия] / Identity Thief [Theatr ...
  • Миллион для чайников / The Brass Teapot (Рамаа Мосли, драма, биография, ист ...
  • Подземелье драконов / Dungeons & Dragons (Кортни Соломон, Фэнтези, боевик, ...
  • Крученый мяч / Trouble with the Curve (Роберт Лоренц, Драма, 2012) [BDRip-A ...
  • Суррогат / The Sessions (Бен Луин, Драма, 2012) [BDRip-AVC, Профессиональны ...
  • Совсем не бабник / Cedar Rapids (Мигель Артета, комедия, 2011) [BDRip-AVC, ...
  • Главное - не бояться! / A Little Bit of Heaven (Николь Кэссел / Nicole Kass ...
  • Челюсти 3D / Shark Night 3D ( Дэвид Р. Эллис, ужасы, 2011) [BDRip-AVC, Проф ...
  • Иностранный легион / La cité (Ким Нгуйен / Kim Nguyen, драма, 2010) [DVDRip ...
  • Драйв / Drive (Николас Виндинг Рёфн, боевик, триллер, драма, криминал, 2011 ...
  • Зеркала 2 / Mirrors 2 (Виктор Гарсия / Víctor García, ужасы, триллер, детек ...
  • Переростки / The Inbetweeners (Бен Палмер, Комедия, 2011) [BDRip-AVC, Профе ...
  • Финишная прямая / La ligne droite (Режис Варнье, драма, спорт, 2011) [HDRip ...
  • Типа крутые спартанцы / The Legend of Awesomest Maximus (Джеф Кэнью, Комеди ...
  • Судный день / The Day (Дуглас Арниокоски, фантастика, триллер, драма, 2011) ...
  • Эд Вуд / Ed Wood (Тим Бёртон, драма, комедия, биография, 1994) [BDRip-AVC, ...
  • Охотник / The Hunter (Дэниэл Неттхейм, драма, приключения, 2011) [BDRip 108 ...
  • Павшая империя / Hirokin (Алехо Мо-Сан, фантастика, боевик, драма, приключе ...
  • Последний неандерталец / Ao, le dernier Néandertal ( Жак Малатье, история, ...
  • Последний неандерталец / Ao, le dernier Néandertal (Жак Малатье, Приключен ...
  • Последний неандерталец / Ao, le dernier Néandertal (Жак Малатье, приключени ...
  • Информация
    Посетители, находящиеся в группе Гости, не могут оставлять комментарии к данной публикации.