вход на сайт

Имя пользователя :
Пароль :

Восстановление пароля Регистрация
Полководцы / Tau ming chong (Питер Чан, Вэй мэн Йип, боевик, драма, военный, история, 2007) [BDRip-AVC, Профессиональный (многоголосый закадровый)]
Рейтинг:
(голосов: 1)



[img]{THEME}/images/logopost.png[/img]



Полководцы / Tau ming chong

«Великие цели - великие свершения.»

Год выпуска: 2007
Страна: Гонконг, Китай
Производство: Applause Pictures
Жанр: боевик, драма, военный, история

Режиссёр: Питер Чан, Вэй мэн Йип
В ролях: Джет Ли, Энди Лау, Такеши Канеширо, Сюй Цзинлэй, Бау-минг Гу, Го Сяодун, Жаояи Ши, Донг Донг Ванг, Куиронг Щанг, Ячао Щанг, Зонгщан Щеи, Бо Чжоу

Перевод: Профессиональный (многоголосый закадровый)
Субтитры:нет

Описание
Полководец, потерявший в одном из жестоких сражений все свое войско, и два вожака шайки грабителей дают клятву быть братьями, сражаться вместе и защищать друг друга. Три воина ставят перед собой масштабную задачу: остановить гражданскую войну и сделать свою страну мирной и процветающей.

На пути к этой цели их ждут кровавые сражения, жестокий выбор — пожертвовать несколькими тысячами человек, чтобы спасти сотни тысяч жизней. Трем полководцам предстоит ответить на вопрос — что такое война: защита родной страны от агрессоров или просто возможность грабить и наживаться.



Доп. информация

"MediaInfo" ▼TextФормат : Matroska
Версия формата : Version 2
Размер файла : 3,47 Гбайт
Продолжительность : 2 ч. 5 м.
Общий поток : 3947 Кбит/сек
Дата кодирования : UTC 2011-10-12 14:29:38
Программа кодирования : mkvmerge v4.9.1 (Ich will) сборка от Jul 11 2011 23:53:15
Библиотека кодирования : libebml v1.2.1 + libmatroska v1.1.1
Видео
Идентификатор : 1
Формат : AVC
Формат/Информация : Advanced Video Codec
Профиль формата : [email protected]
Параметр CABAC формата : Да
Параметр ReFrames формата : 8 кадров
Идентификатор кодека : V_MPEG4/ISO/AVC
Продолжительность : 2 ч. 5 м.
Битрейт : 3500 Кбит/сек
Ширина : 1024 пикселя
Высота : 436 пикселей
Соотношение сторон : 2,35:1
Частота кадров : 24,000 кадра/сек
Цветовое пространство : YUV
Субдискретизация насыщенности : 4:2:0
Битовая глубина : 8 бит
Тип развёртки : Прогрессивная
Бит/(Пиксели*Кадры) : 0.327
Размер потока : 3,00 Гбайт (87%)
Заголовок : Rip by DenisNN
Библиотека кодирования : x264 core 116 r2074 2641b9e
Настройки программы : cabac=1 / ref=8 / deblock=1:-3:-3 / analyse=0x3:0x133 / me=umh / subme=10 / psy=1 / psy_rd=1.00:0.00 / mixed_ref=1 / me_range=32 / chroma_me=1 / trellis=2 / 8x8dct=1 / cqm=0 / deadzone=21,11 / fast_pskip=0 / chroma_qp_offset=3 / threads=3 / sliced_threads=0 / nr=0 / decimate=1 / interlaced=0 / bluray_compat=0 / constrained_intra=0 / bframes=7 / b_pyramid=2 / b_adapt=2 / b_bias=0 / direct=3 / weightb=1 / open_gop=0 / weightp=2 / keyint=250 / keyint_min=23 / scenecut=40 / intra_refresh=0 / rc=2pass / mbtree=0 / bitrate=3500 / ratetol=1.0 / qcomp=0.60 / qpmin=10 / qpmax=51 / qpstep=4 / cplxblur=20.0 / qblur=0.5 / ip_ratio=1.40 / pb_ratio=1.30 / aq=2:1.00
Язык : English
Аудио
Идентификатор : 2
Формат : AC-3
Формат/Информация : Audio Coding 3
Расширение режима : CM (complete main)
Идентификатор кодека : A_AC3
Продолжительность : 2 ч. 5 м.
Вид битрейта : Постоянный
Битрейт : 448 Кбит/сек
Каналы : 6 каналов
Расположение каналов : Front: L C R, Side: L R, LFE
Частота : 48,0 КГц
Битовая глубина : 16 бит
Метод сжатия : С потерями
Размер потока : 403 Мбайт (11%)
Заголовок : CP-Digital
Язык : Russian
Меню
00:00:00.000 : :Chapter 01
00:07:11.625 : :Chapter 02
00:13:12.541 : :Chapter 03
00:18:49.500 : :Chapter 04
00:25:17.416 : :Chapter 05
00:30:02.958 : :Chapter 06
00:37:04.500 : :Chapter 07
00:42:30.416 : :Chapter 08
00:48:08.750 : :Chapter 09
00:55:43.333 : :Chapter 10
01:01:07.041 : :Chapter 11
01:06:05.083 : :Chapter 12
01:12:23.708 : :Chapter 13
01:19:33.125 : :Chapter 14
01:24:14.416 : :Chapter 15
01:31:52.000 : :Chapter 16
01:40:00.916 : :Chapter 17
01:48:20.250 : :Chapter 18
01:55:01.083 : :Chapter 19
01:58:30.500 : :Chapter 20
Рейтинг MPAA ▼
Лицам до 17 лет обязательно присутствие взрослого

Релиз от -
Автор рипа: DenisNN

Тех. данные
Качество: BDRip-AVC
Продолжительность: 02:05:40

Формат: MKV
Видео кодек: x264
Аудио кодек: AC3
Видео: 1024x436 (2,35:1), 23.976 fps,
d6d8283912f7cae4a2308eea68207d396b12ec27Полководцы / Tau ming chong (Питер Чан, Вэй мэн Йип, боевик, драма, военный, история, 2007) [BDRip-AVC, Профессиональный (многоголосый закадровый)] Полководцы / Tau ming chong (Питер Чан, Вэй мэн Йип, боевик, драма, военный, история, 2007) [BDRip-AVC, Профессиональный (многоголосый закадровый)] " />

Аплоадер: Админ, дата: 15-01-2012, 20:20, торрент скачан: 359 раз

Понравилась раздача? Посмотрите эти:
  • [Видеоуроки] [BlenderCookie] Blender: Vehicle Modeling Training Series [201 ...
  • Война миров Z / World War Z [Расширенная версия] (Марк Форстер, ужасы, фант ...
  • Астрал на улице Арлетт / 388 Arletta Avenue (Рэндолл Коул, Триллер, 2011) [ ...
  • Джек Ричер / Jack Reacher (Кристофер МакКуорри, Боевик,триллер, криминал, д ...
  • Убей ради меня / Kill for Me (Майкл Гринспен, триллер, драма, 2013) [DVDRip ...
  • Побег / Flukt (Роар Утхауг, боевик, 2012) [DVDRip-AVC, Любительский (одного ...
  • Челюсти 3D / Shark Night 3D ( Дэвид Р. Эллис, ужасы, 2011) [BDRip-AVC, Проф ...
  • Жизнь прекрасна / La Vita è bella (Роберто Бениньи, Драма, мелодрама, комед ...
  • Тормоз / Brake (Гейб Торрес, триллер, криминал, 2011) [HDRip-AVC, Профессио ...
  • ДухLess (Роман Прыгунов, Драма, 2012) [BDRip-AVC, Не требуется]
  • Цель жизни /Lyaksha (Фархан Ахтар, мелодрама, 2004) [DVDRip, Многоголосый ...
  • Облачный атлас / Cloud Atlas (Лана Вачовски, Том Тыквер, Энди Вачовски, фан ...
  • День учителя (Сергей Мокрицкий, драма, 2012) [DVDRip-AVC, Не требуется]
  • Рейдер (Всеволод Аравин, драма, криминал, 2011) [BDRip 720p, оригинал]
  • Маугли (Роман Давыдов, мультфильм, приключения, семейный, 1973) [BDRip 720p ...
  • Вышибала / Goon (Майкл Даус, комедия, 2011) [BDRip 1080p, Профессиональный ...
  • Ю-571 / U-571 (Джонатан Мостоу, Боевик, 2000) [BDRip - AVC, Дубляж + Субтит ...
  • Полководцы / Tau ming chong (Питер Чан, Вэй мэн Йип, боевик, драма, военный ...
  • Полководцы / Tau ming chong / The Warlords (Питер Чан, Вэй мэн Йип , боевик ...
  • Собачье сердце (Владимир Бортко, фантастика, драма, комедия, 1988) [BDRip 1 ...
  • Информация
    Посетители, находящиеся в группе Гости, не могут оставлять комментарии к данной публикации.