вход на сайт

Имя пользователя :
Пароль :

Восстановление пароля Регистрация
Язон и аргонавты / Jason and the Argonauts (Ник Уиллинг, фэнтези, приключения, 2000) [DVDRip, Профессиональный (двухголосый, закадровый)]
Рейтинг:
(голосов: 1)



[img]{THEME}/images/logopost.png[/img]



Язон и аргонавты / Jason and the Argonauts

Год выпуска: 2000
Страна: США
Производство: Hallmark Entertainment
Жанр: фэнтези, приключения

Режиссёр: Ник Уиллинг
В ролях: Джейсон Лондон, Фрэнк Ланджелла, Наташа Хенстридж, Дерек Джекоби, Оливия Уильямс, Энгус МакФадьен, Деннис Хоппер, Джолин Блэлок, Брайан Томпсон, Адриан Лестер, Кириан Хайндс, Дайана Кент, Дэвид Колдер, Марк Льюис Джонс, Джеймс Кэллис, Хью Куарши

Перевод: Профессиональный (двухголосый, закадровый)
Субтитры: Отсутствуют

Описание:
Преодолевая многочисленные непроходимые препятствия, сражаясь с ужасными чудовищами и прекрасными, но свирепыми амазонками, Язон и его товарищи упрямо идут к цели. И даже царь богов Зевс не в силах помешать отважным героям…
Дополнительно:
Релиз от :
MediaInfo ▼Text
Общее
Полное имя :F:TorrentDownloadJason.and.the.Argonauts.2000.DVDRip.XviD.Rus.avi
Формат :AVI
Размер :1.45 GiB
Продолжительность :02:52:02.000
Общий поток :1 211 Kbps
Программа кодирования :VirtualDubMod 1.5.10.3 | www.virtualdub-fr.org || (build 2550/release)

Видео
Идентификатор :0
Формат :MPEG-4 Visual
Профиль формата :Advanced [email protected]
Параметр BVOP формата :1
Параметр Qpel формата :No
Параметр GMC формата :0
Параметр Matrix формата :Custom
Идентификатор кодека :XVID
Продолжительность :2h 52mn 2s 0ms
Битрейт :1 073 Kbps
Ширина :592 pixels
Высота :448 pixels
Соотношение сторон :1.321
Частота кадров :25.000 fps
Глубина цвета :8 bits
Подвыборка цветности :4:2:0
Цветовое пространство :YUV
Тип развертки :Progressive
Бит/(Пиксели*Кадры) :0.162
Размер потока :1.29 GiB (89%)
Библиотека кодирования :XviD0050

Аудио #1
Идентификатор :1
Формат :MPEG Audio
Идентификатор кодека :55
Продолжительность :02:52:01.992
Вид битрейта :Constant
Битрейт :128 Kbps
Канал(ы) :2 channels
Частота :48.0 KHz
Метод сжатия :Lossy
Размер потока :158 MiB (11%)Тех. данные:
Качество:DVDRip
Продолжительность:02:52:00 час
&
806781873871ce8a65eee575ad65e42fc27df55cЯзон и аргонавты / Jason and the Argonauts (Ник Уиллинг, фэнтези, приключения, 2000) [DVDRip, Профессиональный (двухголосый, закадровый)] Язон и аргонавты / Jason and the Argonauts (Ник Уиллинг, фэнтези, приключения, 2000) [DVDRip, Профессиональный (двухголосый, закадровый)] " />

Аплоадер: Админ, дата: 12-08-2011, 15:32, торрент скачан: 359 раз

Понравилась раздача? Посмотрите эти:
  • Индеец-беглец / The Indian Runner (Шон Пенн, драма, 1991) [DVDRip, Професси ...
  • Моя новая машина / It Takes Two (Дэвид Биэрд, комедия, 1988) [HDTVRip, Проф ...
  • Однажды на матрасе / Once Upon a Mattress (Кэтлин Маршалл, мюзикл, мелодрам ...
  • Путешествия Гулливера / Gullivers Travels (Чарльз Старридж, фэнтези, приклю ...
  • Обнаженная / Naked (Майк Ли, драма, комедия, 1993) [DVDRip, (2х)Профессиона ...
  • Без имени / Sin nombre (Кэри Фукунага, триллер, драма, криминал, приключени ...
  • Процесс Жанны Д Арк / Proces de Jeanne dArc (Робер Брессон, драма, военный, ...
  • Третий принц / Treti princ (Антонин Москалик, фэнтези, мелодрама, семейный, ...
  • Цена славы / Price of Glory (Карлос Авила, Драма, спорт, 2000) [DVDRip, Про ...
  • Морской волк (2 части из 2) / Der Seewolf (Кристоф Шреве, Драма, приключени ...
  • Ясон и аргонавты / Jason and the Argonauts (Ник Уиллинг, приключение, исто ...
  • Алиса в стране чудес / Alice in Wonderland (Ник Уиллинг, Фэнтези, приключен ...
  • Таинственный остров / Остров приключений / Mysterious Island (Сай Эндфилд, ...
  • Тристана / Tristana (Луис Бунюэль, Драма, 1970) [DVDRip, Профессиональный ( ...
  • Город пиратов / La ville des pirates (Рауль Руис, фэнтези, драма, 1983) [DV ...
  • Неверные / Le infedeli (Марио Моничелли, Стено, драма, комедия, 1953) [DVDR ...
  • Бог знает, мистер Аллисон / Heaven Knows, Mr. Allison (Джон Хьюстон, боевик ...
  • Великий Уолдо Пеппер / The Great Waldo Pepper (Джордж Рой Хилл, драма, прик ...
  • Сделано в Раю / Made in Heaven (Алан Рудольф, фэнтези, мелодрама, комедия, ...
  • Рай и ад / Tengoku to jigoku (Акира Куросава, триллер, драма, криминал, 196 ...
  • Суперполицейский / Poliziotto superpiu (Серджио Корбуччи, фантастика, фэнте ...
  • Дьявольское око / Djдvulens цga (Ингмар Бергман, фэнтези, драма, комедия, 1 ...
  • Синбад-мореход / Sinbad the Sailor (Ричард Уоллес, мелодрама, приключения, ...
  • Убей! / Kiru (Кихачи Окамото, боевик, драма, комедия, 1968) [DVDRip, Профес ...
  • Что навеял ветер / Something in the Wind (Ирвинг Пичел, мюзикл, комедия, 19 ...
  • Информация
    Посетители, находящиеся в группе Гости, не могут оставлять комментарии к данной публикации.