вход на сайт

Имя пользователя :
Пароль :

Восстановление пароля Регистрация
Подземелье драконов / Dungeons & Dragons (Кортни Соломон, Фэнтези, боевик, приключения, 2000) [BDRip-AVC, Дубляж, Профессиональный (многоголосый, закадровый), Оригинал (английский), Sub]
Рейтинг:
(голосов: 1)



[img]{THEME}/images/logopost.png[/img]



Подземелье драконов / Dungeons & Dragons

Год выпуска: 2000
Страна: США, Чехия
Производство: Behaviour Worldwide
Жанр: Фэнтези, боевик, приключения

Режиссёр: Кортни Соломон
В ролях: Джереми Айронс, Брюс Пэйн, Джастин Уэйлин, Марлон Уайанс, Роберт Миано, Тора Берч, Эдвард Джюзбери, Зои МакЛеллан, Ли Аренберг

Перевод: Дубляж, Профессиональный (многоголосый, закадровый), Оригинал (английский)
Субтитры: Русские, Английские (SDH)

Описание: Савина, молодая императрица Измира, хочет процветания для своих подданных, но злой представитель всесильной касты магов, колдун Профион, хочет сместить ее и завладеть Скипетром Золотых Драконов.

Чтобы спасти королевство, Савина нанимает двух воров, которые должны пройти все ловушки, победить много нечисти и найти магический Амулет Красных Драконов…



Качество: BDRip-AVC
Продолжительность: 01:47:56

Формат: MKV
Видео кодек: X.264
Аудио кодек: Audio Coding 3
Видео: 1024x576 (16:9), 23.976 fps, X.264 ~2123 kbps, 0.150 bit/pixel
Аудио #1: 48 kHz, Audio Coding 3, 6 ch, ~384.00 kbps avg - (Дубляж)
Аудио #2: 48 kHz, Audio Coding 3, 2 ch, ~192.00 kbps avg - (MVO)
Аудио #3: 48 kHz, Audio Coding 3, 2 ch, ~192.00 kbps avg - (Оригинал (английский))

Дата премьеры (мир): 8 декабря 2000

"MediaInfo" ▼Общее
Уникальный идентификатор : 212749109899447251469539863457450197891 (0xA00DFCF6B9502E7780549E25509C8383)
Полное имя : D: Dungeons & Dragons.2000.BDRip-AVC.mkv
Формат : Matroska
Версия формата : Version 4 / Version 2
Размер файла : 2,18 Гбайт
Продолжительность : 1 ч. 47 м.
Общий поток : 2891 Кбит/сек
Название фильма : Подземелье драконов / Dungeons & Dragons (2000) BDRip-AVC rip by Rulya74
Дата кодирования : UTC 2010-02-22 21:41:31
Программа кодирования : mkvmerge v5.9.0 (On The Loose) built on Dec 9 2012 15:37:01
Библиотека кодирования : libebml v1.3.0 + libmatroska v1.4.0

Видео
Идентификатор : 1
Формат : AVC
Формат/Информация : Advanced Video Codec
Профиль формата : [email protected]
Параметр CABAC формата : Да
Параметр ReFrames формата : 12 кадров
Идентификатор кодека : V_MPEG4/ISO/AVC
Продолжительность : 1 ч. 47 м.
Битрейт : 2123 Кбит/сек
Ширина : 1024 пикселя
Высота : 576 пикселей
Соотношение сторон : 16:9
Частота кадров : 23,976 кадра/сек
Цветовое пространство : YUV
Субдискретизация насыщенности : 4:2:0
Битовая глубина : 8 бит
Тип развёртки : Прогрессивная
Бит/(Пиксели*Кадры) : 0.150
Размер потока : 1,56 Гбайт (71%)
Библиотека кодирования : x264 core 129 r2230 1cffe9f
Настройки программы : cabac=1 / ref=12 / deblock=1:-3:-3 / analyse=0x3:0x133 / me=umh / subme=10 / psy=1 / psy_rd=1.22:0.00 / mixed_ref=1 / me_range=32 / chroma_me=1 / trellis=2 / 8x8dct=1 / cqm=0 / deadzone=21,11 / fast_pskip=0 / chroma_qp_offset=-2 / threads=14 / lookahead_threads=2 / sliced_threads=0 / nr=0 / decimate=1 / interlaced=0 / bluray_compat=0 / constrained_intra=0 / bframes=10 / b_pyramid=2 / b_adapt=1 / b_bias=0 / direct=3 / weightb=1 / open_gop=0 / weightp=2 / keyint=240 / keyint_min=22 / scenecut=40 / intra_refresh=0 / rc_lookahead=40 / rc=2pass / mbtree=1 / bitrate=2123 / ratetol=1.0 / qcomp=0.60 / qpmin=10 / qpmax=69 / qpstep=4 / cplxblur=20.0 / qblur=0.5 / ip_ratio=1.40 / aq=1:1.00
Default : Да
Forced : Нет

Аудио #1
Идентификатор : 2
Формат : AC-3
Формат/Информация : Audio Coding 3
Расширение режима : CM (complete main)
Идентификатор кодека : A_AC3
Продолжительность : 1 ч. 47 м.
Вид битрейта : Постоянный
Битрейт : 384 Кбит/сек
Каналы : 6 каналов
Расположение каналов : Front: L C R, Side: L R, LFE
Частота : 48,0 КГц
Битовая глубина : 16 бит
Метод сжатия : С потерями
Размер потока : 296 Мбайт (13%)
Заголовок : Дублированный
Язык : Russian
Default : Да
Forced : Нет

Аудио #2
Идентификатор : 3
Формат : AC-3
Формат/Информация : Audio Coding 3
Расширение режима : CM (complete main)
Идентификатор кодека : A_AC3
Продолжительность : 1 ч. 47 м.
Вид битрейта : Постоянный
Битрейт : 192 Кбит/сек
Каналы : 2 канала
Расположение каналов : Front: L
479ead359d8828e60752b73e9dbb085173469eb0Подземелье драконов / Dungeons & Dragons (Кортни Соломон, Фэнтези, боевик, приключения, 2000) [BDRip-AVC, Дубляж, Профессиональный (многоголосый, закадровый), Оригинал (английский), Sub] Подземелье драконов / Dungeons & Dragons (Кортни Соломон, Фэнтези, боевик, приключения, 2000) [BDRip-AVC, Дубляж, Профессиональный (многоголосый, закадровый), Оригинал (английский), Sub] " />

Аплоадер: Админ, дата: 29-03-2013, 18:32, торрент скачан: 359 раз

Понравилась раздача? Посмотрите эти:
  • Ночь страха 2: Свежая кровь / Fright Night 2: New Blood (Эдуардо Родригез, ...
  • Ночь страха 2: Свежая кровь / Fright Night 2: New Blood (Эдуардо Родригез, ...
  • Погнали! / Getaway (Кортни Соломон, боевик, криминал, 2013) [BDRip 1080p, П ...
  • Погнали! / Getaway (Кортни Соломон, боевик, криминал, 2013) [BDRip-AVC, Про ...
  • 11.6 / 11.6 (Филипп Годо, Драма, триллер, криминал, 2013) [BDRip-AVC, Профе ...
  • Филадельфия / Philadelphia (Джонатан Демме, Драма, 1993) [BDRip-AVC, Профес ...
  • Никто не выжил / No One Lives (Рюхэй Китамура, Триллер, ужасы, 2012) [BDRip ...
  • Летучий отряд Скотланд-Ярда / The Sweeney (Ник Лав, Боевик, драма, криминал ...
  • Залив / The Bay (Барри Левинсон, Ужасы, фантастика, триллер, 2012) [BDRip-A ...
  • Голливудский мусор / Garbage (Филипп Волкен, драма, комедия, 2013) [HDTVRip ...
  • Рикошет / Ricochet (Ник Гомез, драма, детектив, 2011) [BDRip-AVC, Профессио ...
  • АББА: фильм / ABBA: The Movie (документальный, драма, музыка, 1977) [BDRip- ...
  • Ангелы Чарли / Charlies Angels (МакДжи, Боевик, триллер, комедия, криминал, ...
  • Бульвар спасения / Salvation Boulevard (Джордж Рэтлифф, боевик, триллер, др ...
  • Толстяк на ринге / Here Comes the Boom (Фрэнк Корачи, Боевик, комедия, 2012 ...
  • Суррогат / The Sessions (Бен Луин, Драма, 2012) [BDRip-AVC, Профессиональны ...
  • Эра драконов / Age of the Dragons (Райан Литтл, фантастика, фэнтези, боевик ...
  • Подземелье драконов / Dungeons & Dragons (Кортни Соломон / Courtney Solomon ...
  • Сексуальная тварь / Sexy Beast (Джонатан Глейзер, драма, криминал, 2000) [B ...
  • Третий лишний / Ted (Сет МакФарлейн, Фэнтези, комедия, 2012) [BDRip-AVC, Ду ...
  • Подземелье драконов 3 / Dungeons & Dragons: The Book of Vile Darkness (Джер ...
  • Павшая империя / Hirokin (Алехо Мо-Сан, фантастика, боевик, драма, приключе ...
  • Ворон / The Crow (Алекс Пройас, фэнтези, боевик, триллер, 1994) [BDRip 720p ...
  • Подземелье драконов / Dungeons & Dragons (Кортни Соломон, Боевик, фэнтези, ...
  • Подземелье драконов 2: Источник могущества / Dungeons & Dragons: Wrath of t ...
  • Информация
    Посетители, находящиеся в группе Гости, не могут оставлять комментарии к данной публикации.