вход на сайт

Имя пользователя :
Пароль :

Восстановление пароля Регистрация
Приключения Гекльберри Финна / Die Abenteuer des Huck Finn (Гермина Хунтгебурт, приключения, семейный, 2012) [DVDRip-AVC, Профессиональный (дублированный)]
Рейтинг:
(голосов: 1)



[img]{THEME}/images/logopost.png[/img]



Приключения Гекльберри Финна / Die Abenteuer des Huck Finn

Год выпуска: 2012
Страна: Германия
Производство: ARD Degeto Film GmbH, arte, Bayerischer Rundfunk (BR)
Жанр: приключения, семейный

Режиссёр: Гермина Хунтгебурт
В ролях: Леон Сидел, Луис Хофманн, Джеки Идо, Аугуст Диль, Хайке Макач, Петер Ломайер, Михаэль Гвиздек, Курт Крюмер, Хиннерк Шонеманн, Хенри Хюбхен

Перевод: Профессиональный (дублированный)
Субтитры: Отсутствуют

Описание: Кто не знает Тома Сойера и Гекльберри Финна? Найдя сокровища, эти два проказника наконец разбогатели. Однако «свободный волк» Гек не может усидеть на месте. К тому же его добрый друг, чернокожий Джим, в опасности — хозяйка собирается продать его на аукционе. В компании Джима Гек отправляется мимо диких берегов Миссисипи — сначала в Каир, а потом и в Огайо, в свободную страну, не знающую рабства… А значит, впереди беглецов ждёт множество самых невероятных приключений! Будет ли счастливый конец у этой полной опасностей истории? И увидятся ли снова закадычные друзья Том Сойер и Гекльберри Финн?



Релиз:
Автор рипа: kaspr

Качество: DVDRip-AVC | Сэмпл
Продолжительность: 01:42:56 час.

Формат: MKV
Видео кодек: x.264
Аудио кодек: AC3
Видео: x.264 / [email protected] / 2,40:1 / 1552 kbps / 25,00 fps / 0.201 bit/pixel
Аудио: 48 kHz, AC3 Dolby Digital, 3/2 (L,C,R,l,r) + LFE ch, ~448 kbps

Премьера (мир): 3 октября 2012
Премьера (РФ): 9 мая 2013, «Люксор»

Media Info ▼Общее
Полное имя : D:Mои раздачиPrikljuchenija.Geklberri.Finna.2012.DVDRip.(AVC)-MediaClub.mkv
Формат : Matroska
Версия формата : Version 2
Размер файла : 1,44 Гбайт
Продолжительность : 1 ч. 40 м.
Общий поток : 2041 Кбит/сек
Программа кодирования : SolveigMM Matroska Muxer Version 1.0.1206.22
Библиотека кодирования : libmatroska 1.3.0

Видео
Идентификатор : 1
Формат : AVC
Формат/Информация : Advanced Video Codec
Профиль формата : [email protected]
Параметр CABAC формата : Да
Параметр ReFrames формата : 9 кадров
Идентификатор кодека : V_MPEG4/ISO/AVC
Продолжительность : 1 ч. 40 м.
Битрейт : 1552 Кбит/сек
Ширина : 720 пикселей
Высота : 428 пикселей
Соотношение сторон : 2,40:1
Режим частоты кадров : Постоянный
Частота кадров : 25,000 кадров/сек
Цветовое пространство : YUV
Субдискретизация насыщенности : 4:2:0
Битовая глубина : 8 бит
Тип развёртки : Прогрессивная
Бит/(Пиксели*Кадры) : 0.201
Размер потока : 1,09 Гбайт (76%)
Язык : English
Библиотека кодирования : x264 core 130 r2273 b3065e6
Настройки программы : cabac=1 / ref=9 / deblock=1:-3:-3 / analyse=0x3:0x133 / me=umh / subme=10 / psy=1 / psy_rd=1.00:0.00 / mixed_ref=1 / me_range=32 / chroma_me=1 / trellis=2 / 8x8dct=1 / cqm=0 / deadzone=21,11 / fast_pskip=0 / chroma_qp_offset=-2 / threads=12 / lookahead_threads=3 / sliced_threads=0 / nr=0 / decimate=0 / interlaced=0 / bluray_compat=0 / constrained_intra=0 / bframes=10 / b_pyramid=2 / b_adapt=2 / b_bias=0 / direct=3 / weightb=1 / open_gop=0 / weightp=2 / keyint=250 / keyint_min=25 / scenecut=40 / intra_refresh=0 / rc=2pass / mbtree=0 / bitrate=1552 / ratetol=1.0 / qcomp=0.60 / qpmin=0 / qpmax=69 / qpstep=4 / cplxblur=20.0 / qblur=0.5 / ip_ratio=1.40 / pb_ratio=1.30 / aq=1:1.00
Default : Нет
Forced : Нет

Аудио
Идентификатор : 2
Формат : AC-3
Формат/Информация : Audio Coding 3
Расширение режима : CM (complete main)
Параметр Endianness формата : Big
Идентификатор кодека : A_AC3
Продолжительность : 1 ч. 40 м.
Вид битрейта : Постоянный
Битрейт : 448 Кбит/сек
Каналы : 6 каналов
Расположение каналов : Front: L C R, Side: L R, LFE
Частота : 48,0 КГц
Битовая глубина : 16 бит
Метод сжатия : С потерями
Задержка видео : 8 мс.
Размер потока : 323 Мбайт (22%)
Язык : English
Default : Нет
Forced : Нет



Наши рипы | Набор в РГ | Стол заказов РГ | Новости РГ



a09a7b466257eac4ae0912cef1c2f0283144ac67Приключения Гекльберри Финна / Die Abenteuer des Huck Finn (Гермина Хунтгебурт, приключения, семейный, 2012) [DVDRip-AVC, Профессиональный (дублированный)] Приключения Гекльберри Финна / Die Abenteuer des Huck Finn (Гермина Хунтгебурт, приключения, семейный, 2012) [DVDRip-AVC, Профессиональный (дублированный)] " />

Аплоадер: Админ, дата: 9-06-2013, 02:10, торрент скачан: 359 раз

Понравилась раздача? Посмотрите эти:
  • Мэрайа Мунди и шкатулка Мидаса / The Adventurer: The Curse of the Midas Box ...
  • Одноклассники 2 / Grown Ups 2 (Деннис Дуган, Комедия, 2013) [BDRip-AVC, Про ...
  • Мэрайа Мунди и шкатулка Мидаса / The Adventurer: The Curse of the Midas Box ...
  • Заклятие / The Conjuring (Джеймс Ван, ужасы, триллер, 2013) [BDRip 720р, Ду ...
  • Заклятие / The Conjuring (Джеймс Ван, ужасы, триллер, 2013) [BDRip 1080p, Д ...
  • Приключения Гекльберри Финна / Die Abenteuer des Huck Finn (Гермина Хунтгеб ...
  • Приключения Гекльберри Финна / Die Abenteuer des Huck Finn (Гермина Хунтгеб ...
  • Приключения Гекльберри Финна / Die Abenteuer des Huck Finn (Гермина Хунтгеб ...
  • Приключения Гекльберри Финна / Die Abenteuer des Huck Finn (Гермина Хунтгеб ...
  • Приключения Гекльберри Финна / Die Abenteuer des Huck Finn (Гермина Хунтгеб ...
  • Приключения Гекльберри Финна / Die Abenteuer des Huck Finn (Гермина Хунтгеб ...
  • Приключения Гекльберри Финна / Die Abenteuer des Huck Finn (Гермина Хунтгеб ...
  • Приключения Гекльберри Финна / Die Abenteuer des Huck Finn (Гермина Хунтгеб ...
  • Рикошет / Ricochet (Ник Гомез, драма, детектив, 2011) [BDRip-AVC, Профессио ...
  • Железяки / Yak (Прапас Чолсаранонт, мультфильм, 2012) [DVDRip-AVC, Професси ...
  • Ворон / The Raven (Джеймс МакТиг, Триллер, детектив, 2012) [BDRip 1080p, Ду ...
  • Даю год / I Give It a Year (Дэн Мазер, мелодрама, комедия, 2012) [BDRip-AVC ...
  • 21 и больше / 21 & Over (Джон Лукас, Скотт Мур, комедия, 2013) [DVDRip-AVC, ...
  • Чемпионат Англии 2012-2013 / 25-й тур / Обзор / Суббота / BBC Sport [2013 г ...
  • Приключения Гекльберри Финна / The Adventures of Huck Finn (Стивен Соммерс, ...
  • Информация
    Посетители, находящиеся в группе Гости, не могут оставлять комментарии к данной публикации.