вход на сайт

Имя пользователя :
Пароль :

Восстановление пароля Регистрация
Кон-Тики / Kon-Tiki (Хоаким Роннинг, Эспен Сандберг, Приключения, биография, история, 2012) [BDRip-AVC, Дубляж]
Рейтинг:
(голосов: 1)



[img]{THEME}/images/logopost.png[/img]



Кон-Тики / Kon-Tiki
«Через океан в поисках истины»

Год выпуска: 2012
Страна: Великобритания, Норвегия, Дания, Германия
Производство: DCM Productions, Film i Väst, Nordisk Film Production, Recorded Picture Company (RPC), Roenbergfilm
Жанр: Приключения, биография, история

Режиссёр: Хоаким Роннинг, Эспен Сандберг
В ролях: Пал Сверре Валхейм Хэйген, Андерс Баасмо Кристиансен, Густаф Скарсгард, Одд Магнус Уильямсон, Тобиас Зантелман, Якоб Офтебро, Агнес Киттелсен, Томас Арнольд, Йорген Бертаге, Элинор Бурк, Мануэль Коши, Сэм Чэпман, Стефан Кронуолл, Катинка Эгрес, Йен Кнауэр, Оле Слетнер, Ричард Триндер

Перевод: Дубляж
Субтитры: Отсутствуют

Описание: Это известная история о том, как норвежский путешественник Тур Хейердал в 1947 году пересёк Тихий океан от Перу до Полинезии на бальсовом плоту. Таким способом он хотел доказать свою теорию о заселении Полинезии из Южной Америки, а не из Азии, как тогда считалось.Качество: BDRip-AVC | Сэмпл
Продолжительность: 01:49:51 час.


Формат: MKV
Видео кодек: x264
Аудио кодек: AC3
Видео: 1022x428 (2.35:1), 25.000 fps, x264 ~1 530 kbps avg, 0.140 bit/pixel
Аудио: 48 kHz, AC3 Dolby Digital, 3/2 (L,C,R,l,r) + LFE ch, ~384 kbps - (Дубляж)

Дата премьеры (мир): 18 августа 2012
Дата премьеры (РФ): 18 апреля 2013, «Люксор»

MediaInfo ▼
Общее
Уникальный идентификатор : 172419301378337606913097658424880618975 (0x81B6BFE29B3263FC9B0BA039A7B95DDF)
Полное имя : J:Кон тикиKon-Tiki_2012_BDRip_AVC_Dub.mkv
Формат : Matroska
Размер файла : 1,46 Гбайт
Продолжительность : 1 ч. 49 м.
Общий поток : 1915 Кбит/сек
Название фильма : Kon-Tiki 2012 (Rip by S.T.A.L.K.E.R.2)
Дата кодирования : UTC 2013-06-04 11:28:05
Программа кодирования : mkvmerge v6.1.0 (Old Devil) built on Mar 2 2013 14:32:37
Библиотека кодирования : libebml v1.3.0 + libmatroska v1.4.0

Видео
Идентификатор : 1
Формат : AVC
Формат/Информация : Advanced Video Codec
Профиль формата : [email protected]
Параметр CABAC формата : Да
Параметр ReFrames формата : 11 кадры
Идентификатор кодека : V_MPEG4/ISO/AVC
Продолжительность : 1 ч. 49 м.
Битрейт : 1530 Кбит/сек
Ширина : 1022 пикс.
Высота : 428 пикс.
Соотношение сторон : 2,35:1
Частота кадров : 25,000 кадр/сек
Цветовое пространство : YUV
Подвыборка цветности : 4:2:0
Битовая глубина : 8 бит
Тип развёртки : Прогрессивная
Бит/(Пиксели*Кадры) : 0.140
Размер потока : 1,14 Гбайт (78%)
Библиотека кодирования : x264 core 130 r2273 b3065e6
Настройки программы : cabac=1 / ref=11 / deblock=1:-3:-3 / analyse=0x3:0x133 / me=umh / subme=11 / psy=1 / psy_rd=1.05:0.00 / mixed_ref=1 / me_range=32 / chroma_me=1 / trellis=2 / 8x8dct=1 / cqm=0 / deadzone=21,11 / fast_pskip=1 / chroma_qp_offset=-2 / threads=6 / lookahead_threads=1 / sliced_threads=0 / nr=0 / decimate=0 / interlaced=0 / bluray_compat=0 / constrained_intra=0 / bframes=11 / b_pyramid=2 / b_adapt=2 / b_bias=0 / direct=1 / weightb=1 / open_gop=0 / weightp=2 / keyint=250 / keyint_min=25 / scenecut=40 / intra_refresh=0 / rc_lookahead=80 / rc=2pass / mbtree=1 / bitrate=1530 / ratetol=1.0 / qcomp=0.60 / qpmin=10 / qpmax=51 / qpstep=4 / cplxblur=20.0 / qblur=0.5 / vbv_maxrate=50000 / vbv_bufsize=50000 / nal_hrd=none / ip_ratio=1.40 / aq=1:1.00
Язык : English

Аудио
Идентификатор : 2
Формат : AC-3
Формат/Информация : Audio Coding 3
Расширение режима : CM (complete main)
Идентификатор кодека : A_AC3
Продолжительность : 1 ч. 49 м.
Вид битрейта : Постоянный
Битрейт : 384 Кбит/сек
Канал(ы) : 6 канала(ов)
Расположение каналов : Front: L C R, Side: L R, LFE
Частота : 48,0 КГц
Битовая глубина : 16 бит
Метод сжатия : С потерями
Размер потока : 300 Мбайт (20%)
Заголовок : Dub, BD
Язык : Russian







3b038fecd00b9dffab84d50de15dba20f4daaeddКон-Тики / Kon-Tiki (Хоаким Роннинг, Эспен Сандберг, Приключения, биография, история, 2012) [BDRip-AVC, Дубляж] Кон-Тики / Kon-Tiki (Хоаким Роннинг, Эспен Сандберг, Приключения, биография, история, 2012) [BDRip-AVC, Дубляж] " />

Аплоадер: Админ, дата: 4-06-2013, 19:47, торрент скачан: 359 раз

Понравилась раздача? Посмотрите эти:
  • Кон-Тики / Kon-Tiki (Хоаким Роннинг, Эспен Сандберг, Приключения, биография ...
  • Кон-Тики / Kon-Tiki (Хоаким Роннинг, Эспен Сандберг, Приключения, биография ...
  • Кон-Тики / Kon-Tiki (Хоаким Роннинг, Эспен Сандберг, боевик, драма, приключ ...
  • Кон-Тики / Kon-Tiki (Хоаким Роннинг, Эспен Сандберг, Приключения, биография ...
  • Кон-Тики / Kon-Tiki (Хоаким Роннинг, Эспен Сандберг, Приключения, биография ...
  • Кон-Тики / Kon-Tiki (Хоаким Роннинг, Эспен Сандберг, Приключения, биография ...
  • Кон-Тики / Kon-Tiki (Хоаким Роннинг, Эспен Сандберг, Приключения, биография ...
  • Кон-Тики / Kon-Tiki (Хоаким Роннинг, Эспен Сандберг, приключения, биография ...
  • Кон-Тики / Kon-Tiki (Хоаким Роннинг, Эспен Сандберг, Приключения, биография ...
  • Кон-Тики / Kon-Tiki (Хоаким Роннинг, Эспен Сандберг, боевик, драма, приключ ...
  • Идеальный голос / Pitch Perfect (Джейсон Мур, Мелодрама, комедия, музыка, 2 ...
  • Кон-Тики / Kon-Tiki (Хоаким Роннинг, Эспен Сандберг, боевик, драма, приключ ...
  • Кон-Тики / Kon-Tiki (Хоаким Роннинг, Эспен Сандберг, боевик, драма, приключ ...
  • Бандитки / Bandidas (Хоаким Роннинг, Эспен Сандберг, боевик, комедия, весте ...
  • Кон-Тики / Kon-Tiki (Хоаким Роннинг, Эспен Сандберг, боевик, драма, приключ ...
  • Бандитки / Bandidas (Хоаким Роннинг / Joachim Roenning, Эспен Сандберг / Es ...
  • Кон-Тики / Kon-Tiki (Хоаким Роннинг, Эспен Сандберг, боевик, драма, приключ ...
  • [EN] Кон-Тики / Kon-Tiki (Хоаким Роннинг, Эспен Сандберг / боевик, драма, п ...
  • Кон-Тики / Kon-Tiki (Хоаким Роннинг, Эспен Сандберг, боевик, драма, приключ ...
  • Кон-Тики / Kon-Tiki (Хоаким Роннинг, Эспен Сандберг, боевик, драма, приключ ...
  • Информация
    Посетители, находящиеся в группе Гости, не могут оставлять комментарии к данной публикации.