вход на сайт

Имя пользователя :
Пароль :

Восстановление пароля Регистрация
Хранители сокровищ / Treasure Guards (Айэйн Б. МакДональд, приключения, 2011) [HDRip, Профессиональный (многоголосый, закадровый)]
Рейтинг:
(голосов: 1)



[img]{THEME}/images/logopost.png[/img]



«Хранители сокровищ / Treasure Guards»

Год выпуска: 2011
Страна: Германия
Производство: Film Afrika Worldwide CC, Tandem Communications
Жанр: приключения

Режиссёр: Айэйн Б. МакДональд
В ролях: Мориц Полтер, Йонас Бауэр, Дэвид Викт, Анна Фрил, Рауль Бова, Фолькер Бруч, Акрам Элли, Хейн Де Фриз, George Jackos, Андре Джейкобс, Флорентина Ламе, Патрик Листер, Хосе Морейра Ваз

Перевод: Профессиональный (многоголосый, закадровый) [лицензия]
Озвучка: не известно
Субтитры: нет

Описание
Во время раскопок археолог Виктория Картер находит древнюю карту, указывающую путь к Печати Соломона — древнему амулету, полученному царем от самого Бога! Не желая делиться открытием, Виктория решает немедленно отправиться на поиски. Но слухи распространяются очень быстро, тем более, что на Печать давно идет охота по всему миру! Так же узнают о находке и в Ватикане, откуда, опасаясь мощи хранящихся там артефактов, отправляют к Виктории на помощь известного ученого Тедди Картера. Он должен сделать все, чтобы Печать не попала в плохие руки!



Доп. информация
СкринЛист ▼
MediaInfo ▼TextОбщее
Полное имя : D:DownloadsХранители сокровищ.2011.XviD.HDRip.avi
Формат : AVI
Формат/Информация : Audio Video Interleave
Размер файла : 701 Мбайт
Продолжительность : 1 ч. 36 м.
Общий поток : 1011 Кбит/сек
Программа кодирования : VirtualDubMod 1.5.10.3 | www.virtualdub-fr.org || (build 2550/release)
Библиотека кодирования : VirtualDubMod build 2550/release

Видео
Идентификатор : 0
Формат : MPEG-4 Visual
Профиль формата : Advanced [email protected]
Параметр BVOP формата : 2
Параметр QPel формата : Нет
Параметр GMC формата : Без точки перехода
Параметр матрицы формата : Default (MPEG)
Режим смешивания : Сжатый битовый поток
Идентификатор кодека : XVID
Идентификатор кодека/Подсказка : XviD
Продолжительность : 1 ч. 36 м.
Битрейт : 874 Кбит/сек
Ширина : 640 пикселей
Высота : 352 пикселя
Соотношение сторон : 16:9
Частота кадров : 23,976 кадра/сек
Цветовое пространство : YUV
Субдискретизация насыщенности : 4:2:0
Битовая глубина : 8 бит
Тип развёртки : Прогрессивная
Метод сжатия : С потерями
Бит/(Пиксели*Кадры) : 0.162
Размер потока : 606 Мбайт (86%)
Библиотека кодирования : XviD 64

Аудио
Идентификатор : 1
Формат : MPEG Audio
Версия формата : Version 1
Профиль формата : Layer 3
Идентификатор кодека : 55
Идентификатор кодека/Подсказка : MP3
Продолжительность : 1 ч. 36 м.
Вид битрейта : Постоянный
Битрейт : 128 Кбит/сек
Каналы : 2 канала
Частота : 48,0 КГц
Метод сжатия : С потерями
Размер потока : 88,8 Мбайт (13%)
Выравнивание : Соединение по промежуткам
Продолжительность промежутка : 42 мс. (1,00 видеокадр)
Время предзагрузки промежутка : 504 мс.
Библиотека кодирования : L3.99r
Настройки программы : -m s -V 4 -q 2 -lowpass 17 -b 128


Тех. данные
Качество: HDRip
Продолжительность: 01:36:57 часа

Формат: AVI
Видео кодек: XviD
Аудио кодек: MP3
Видео: 640x352 (1.82:1), 23.976 fps, XviD MPEG-4 ~874 kbps avg, 0.16 bit/pixel
Аудио: 48.00 kHz, MPEG Layer 3, 2 ch, ~ 128.00 kbps avg

99064145337764f090c31f9bfc1b234e20c0ada0Хранители сокровищ / Treasure Guards (Айэйн Б. МакДональд, приключения, 2011) [HDRip, Профессиональный (многоголосый, закадровый)] Хранители сокровищ / Treasure Guards (Айэйн Б. МакДональд, приключения, 2011) [HDRip, Профессиональный (многоголосый, закадровый)] " />

Аплоадер: Админ, дата: 22-02-2012, 11:39, торрент скачан: 359 раз

Понравилась раздача? Посмотрите эти:
  • Хранители сокровищ / Treasure Guards (Айэйн Б. МакДональд, приключения, 20 ...
  • Грязная кампания за честные выборы / The Campaign (Джей Роуч , Комедия,201 ...
  • Слежка / The Letter (Джей Ананья, Триллер, драма, 2012) [DVDRip, Профессион ...
  • Хранители сокровищ / Treasure Guards (Айэйн Б. МакДональд, Приключения, 201 ...
  • Рождённый свободным / The Colt (Елена Ланская, драма, боевик, история, 200 ...
  • Злые птицы: Хэллоуин / Angry Birds: HamOWeen (Джей Ройвайнен, Мультфильм, к ...
  • Киддо - супергрузовичок / Kiddo The Super Truck (Д. Нэйр, Мультфильм, 2002) ...
  • Путешествие на дно моря / Voyage to the Bottom of the Sea (Ирвин Аллен / I ...
  • Бог любви / God of Love (Люк Мэзени, Короткометражка, фэнтези, комедия, мел ...
  • Любовь по расписанию / Поезд (Сергей Мезенцев, мелодрама, 2012) [HDTVRip, Н ...
  • Вечерний Ургант // Сезон 2. Выпуск 63 (ТВ-шоу, 20.12.2012) [SATRip, Не треб ...
  • Кейси Джонс / Casey Jones (Иларион Бэнкс, Короткометражка, фэнтези, боевик, ...
  • Заместитель / Il supplente (Андреа Жублин, Короткометражка, комедия, 2007) ...
  • Вечерний Ургант // Сезон 2. Выпуск 66 (ТВ-шоу, 25.12.2012) [SATRip, Не треб ...
  • Дорога на... / Road to (Таисия Игуменцева, Комедия, короткометражный, 2011) ...
  • Покорить высоту / Take It to the Limit (Сэм Кит / Sam Kieth, семейный, 2000 ...
  • Светлячок. Воссоединение Коричневых плащей к 10 годовщине / Firefly 10th An ...
  • Брат якудзы / Brother (Такеши Китано, триллер, драма, криминал, 2000) [HDRi ...
  • Детский душ / Baby Shower (Pablo Illanes, Ужасы, 2011) [DVDRip, Любительски ...
  • Привет, Джули! / Flipped (Роб Райнер, драма, мелодрама, комедия , 2010) [HD ...
  • Секс и Дзен 3D / 3D rou pu tuan zhi ji le bao jian (Кристофер Сунь Лэп Ки, ...
  • Хранители сокровищ / Treasure Guards (Айэйн Б. МакДональд, приключения, 201 ...
  • Хранители сокровищ / Treasure Guards (Айэйн Б. МакДональд, Приключения, 201 ...
  • Хранители сокровищ / Treasure Guards (Айэйн Б. МакДональд, Приключения, 201 ...
  • Звездный крейсер Найденион / Nydenion - Krieg der Kolonien (Джек Мойк, фант ...
  • Информация
    Посетители, находящиеся в группе Гости, не могут оставлять комментарии к данной публикации.