вход на сайт

Имя пользователя :
Пароль :

Восстановление пароля Регистрация
[Трейлер] Любовный переплет / The Oranges (Джулиан Фарино, драма, мелодрама, комедия) [HDRip 1080p, Авторский (Двухголосый, Закадровый)] (14 февраля 2013)
Рейтинг:
(голосов: 1)



[img]{THEME}/images/logopost.png[/img]



Любовный переплет / The Oranges

«Its about to get juicy.»

Год выпуска: 2011
Страна: США
Производство: Likely Story, Olympus Pictures
Жанр: драма, мелодрама, комедия

Режиссёр: Джулиан Фарино
В ролях: Хью Лори, Кэтрин Кинер, Оливер Плэтт, Эллисон Джэнни, Алиа Шокат, Адам Броди, Лейтон Мистер, Бойд Холбрук, Тим Гини, Лукас Папаэлиас

Перевод: Авторский (Двухголосый, Закадровый)
Озвучка: Пётр Гланц и Королева
Субтитры: нет

Описание: Семьи Острофф и Уоллинг дружат между собой и живут по соседству, на Орандж Драйв, как раз напротив. Дочь-транжирка, Нина Острофф, возвращается домой на День Благодарения, после пятилетнего отсутствия, недавно порвав с женихом. Вместо того, чтобы заинтересоваться успешным сыном своих соседей, Тоби Уоллингом, что устроило бы обе семьи, она обращает внимание на его отца и лучшего друга своих родителей, Дэвида Уоллинга. Когда романтические отношения между Ниной и Дэвидом становится невозможно игнорировать, жизнь обеих семей приходит в полный беспорядок.

Качество: HDRip 1080p
Продолжительность: 00:02:30

Премьера (Мир): 10 сентября 2011
Премьера (СНГ): 14 февраля 2013

Рейтинг ожиданий КиноПоиск: 84% (9 017)

Формат: MP4
Видео: H.264, 1920 x 1036 (1.85:1), 29.970 fps, ~7892 kbps avg, 0.132 bit/pixel
Аудио: 44.1 kHz, AAC, 2 ch, ~104.00 kbps avg
Media Info ▼
D:248Filmskinopoisk.ru-Oranges-The-116709.mp4
General
Complete name : D:248Filmskinopoisk.ru-Oranges-The-116709.mp4
Format : MPEG-4
Format profile : QuickTime
Codec ID : qt
File size : 143 MiB
Duration : 2mn 30s
Overall bit rate mode : Variable
Overall bit rate : 8 001 Kbps
Encoded date : UTC 2012-08-05 20:00:00
Tagged date : UTC 2012-08-05 20:00:00
Writing application : Lavf53.10.0
Video #1
ID : 1
Format : AVC
Format/Info : Advanced Video Codec
Format profile : [email protected]
Format settings, CABAC : Yes
Format settings, ReFrames : 1 frame
Codec ID : avc1
Codec ID/Info : Advanced Video Coding
Duration : 2mn 30s
Bit rate : 7 892 Kbps
Width : 1 920 pixels
Height : 1 036 pixels
Display aspect ratio : 1.85:1
Frame rate mode : Constant
Frame rate : 29.970 fps
Color space : YUV
Chroma subsampling : 4:2:0
Bit depth : 8 bits
Scan type : Progressive
Bits/(Pixel*Frame) : 0.132
Stream size : 141 MiB (99%)
Language : English
Encoded date : UTC 2012-08-05 20:00:00
Tagged date : UTC 2012-08-05 20:00:00
Audio #2
ID : 2
Format : AAC
Format/Info : Advanced Audio Codec
Format profile : LC
Codec ID : 40
Duration : 2mn 30s
Bit rate mode : Variable
Bit rate : 104 Kbps
Maximum bit rate : 128 Kbps
Channel(s) : 2 channels
Channel positions : Front: L R
Sampling rate : 48.0 KHz
Compression mode : Lossy
Stream size : 1.87 MiB (1%)
 
e944f1927ec7dff27896ba1fbf2793b91c5ab518[Трейлер] Любовный переплет / The Oranges (Джулиан Фарино, драма, мелодрама, комедия) [HDRip 1080p, Авторский (Двухголосый, Закадровый)] (14 февраля 2013) [Трейлер] Любовный переплет / The Oranges (Джулиан Фарино, драма, мелодрама, комедия) [HDRip 1080p, Авторский (Двухголосый, Закадровый)] (14 февраля 2013) " />

Аплоадер: Админ, дата: 6-09-2012, 12:09, торрент скачан: 359 раз

Понравилась раздача? Посмотрите эти:
  • Инфинити / А он такой [2013, Pop, Master]
  • Инфинити / Нежно [2013, Pop, Master]
  • Афродита / Валера [2012, Pop, HDRip]
  • Quest Pistols / Забудем все [2013, Pop, HDRip]
  • Виа Гра / Перемирие [2013, Pop, HDRip]
  • Татьяна Котова / Признание [2012, Pop, HDRip]
  • Горячий Шоколад / Две Недели Рая [2013, Pop, HDRip]
  • Ярослава / Это любовь [2012, Pop, HDRip]
  • NBA 2013-2014 / RS / Highlights [Баскетбол, 04.11.2013, WEB-DL HD/720p, MP4 ...
  • Любовный переплет / The Oranges (Джулиан Фарино, драма, мелодрама, комедия, ...
  • Любовный переплет / The Oranges (Джулиан Фарино, Драма, мелодрама, комедия, ...
  • [Трейлер] Любовный переплет / The Oranges (Джулиан Фарино, драма, мелодрама ...
  • Coldplay / Christmas Lights [2010, Indie Rock,Britpop, HDRip]
  • [Тизер #1] 007: Координаты «Скайфолл» / Skyfall (Сэм Мендес, боевик, трилле ...
  • [Тизер #1] 007: Координаты «Скайфолл» / Skyfall (Сэм Мендес, боевик, трилле ...
  • [Трейлер #1] Великий Гэтсби / The Great Gatsby (Баз Лурман, драма, мелодрам ...
  • [Тизер #1] Отверженные / Les Misérables (Том Хупер, мюзикл, драма) [HDRip 7 ...
  • [Трейлер #1] Джанго освобожденный / Django Unchained (Квентин Тарантино, др ...
  • [Трейлер #1] Джанго освобожденный / Django Unchained (Квентин Тарантино, др ...
  • [Трейлер #1] Трудности быть изгоем / The Perks of Being a Wallflower (Стиве ...
  • [Трейлер #1] Экипаж / Flight (Роберт Земекис, драма) [BDRip 1080p, Гланц (A ...
  • [Трейлер #1] Возвращение героя / The Last Stand (Ким Чжи Ун, боевик, трилле ...
  • [Трейлер #1] Неудержимый / Bullet to the Head (Уолтер Хилл, боевик, триллер ...
  • [Трейлер] Ледяной / The Iceman (Ариэль Вромен, триллер, драма, криминал) [H ...
  • [Трейлер] Как по маслу / Butter (Джим Филд Смит, комедия) [HDRip 1080р, зак ...
  • Информация
    Посетители, находящиеся в группе Гости, не могут оставлять комментарии к данной публикации.