вход на сайт

Имя пользователя :
Пароль :

Восстановление пароля Регистрация
[Трейлер] Как по маслу / Butter (Джим Филд Смит, комедия) [HDRip 1080р, закадровый (Пётр Гланц)] (25 октября 2012)
Рейтинг:
(голосов: 1)



[img]{THEME}/images/logopost.png[/img]



Как по маслу / Butter

Год выпуска: 2011
Страна: США
Производство: Michael De Luca Productions
Жанр: комедия

Режиссёр: Джим Филд Смит
В ролях: Дженнифер Гарнер, Тай Бурелл, Оливия Уайлд, Роб Кордри, Эшли Грин, Алисия Сильверстоун, Хью Джекман, Кристен Шааль, Филлис Смит, Прюитт Тэйлор Винс

Перевод: закадровый (двухголосый)
Озвучка: Пётр Гланц
Субтитры: нет

Описание: История о девочке, удочеренной в маленьком городке на Среднем Западе, которая открывает в себе талант вырезания скульптур из сливочного масла. На ежегодном местном конкурсе ей придется посоперничать с амбициозной женщиной, ранее не знавшей конкурентов в этом ремесле.

Качество: HDRip 1080p
Продолжительность: 00:02:36

Премьера (Мир): 4 сентября 2011
Премьера (СНГ): 25 октября 2012

Рейтинг ожиданий КиноПоиск: 82% (8 084)

Формат: MP4
Видео кодек: H.264
Аудио кодек: AAC
Видео: 1920 x 812 (2.35:1), 23.976 fps, ~8110 kbps avg, 0.217 bit/pixel
Аудио: 44.1 kHz, AAC, 2 ch, ~128.00 kbps avg
Media Info ▼
General
Complete name : D:248FilmsButter.HDRip.1080p.mp4
Format : MPEG-4
Format profile : QuickTime
Codec ID : qt
File size : 154 MiB
Duration : 2mn 36s
Overall bit rate : 8 242 Kbps
Encoded date : UTC 2012-09-01 20:00:00
Tagged date : UTC 2012-09-01 20:00:00
Writing application : Lavf53.10.0
Video #1
ID : 1
Format : AVC
Format/Info : Advanced Video Codec
Format profile : [email protected]
Format settings, CABAC : Yes
Format settings, ReFrames : 1 frame
Codec ID : avc1
Codec ID/Info : Advanced Video Coding
Duration : 2mn 36s
Bit rate : 8 110 Kbps
Width : 1 920 pixels
Height : 812 pixels
Display aspect ratio : 2.35:1
Frame rate mode : Constant
Frame rate : 23.976 fps
Color space : YUV
Chroma subsampling : 4:2:0
Bit depth : 8 bits
Scan type : Progressive
Bits/(Pixel*Frame) : 0.217
Stream size : 151 MiB (98%)
Language : English
Encoded date : UTC 2012-09-01 20:00:00
Tagged date : UTC 2012-09-01 20:00:00
Audio #2
ID : 2
Format : AAC
Format/Info : Advanced Audio Codec
Format profile : LC
Codec ID : 40
Duration : 2mn 36s
Bit rate mode : Constant
Bit rate : 128 Kbps
Channel(s) : 2 channels
Channel positions : Front: L R
Sampling rate : 48.0 KHz
Compression mode : Lossy
Stream size : 2.38 MiB (2%)
Language : English
Encoded date : UTC 2012-09-01 20:00:00
Tagged date : UTC 2012-09-01 20:00:00



1cb7e12a7664ab7039e2c03ccaa8d8592d1383d3[Трейлер] Как по маслу / Butter (Джим Филд Смит, комедия) [HDRip 1080р, закадровый (Пётр Гланц)] (25 октября 2012) [Трейлер] Как по маслу / Butter (Джим Филд Смит, комедия) [HDRip 1080р, закадровый (Пётр Гланц)] (25 октября 2012) " />

Аплоадер: Админ, дата: 5-09-2012, 19:47, торрент скачан: 359 раз

Понравилась раздача? Посмотрите эти:
  • Афродита / Валера [2012, Pop, HDRip]
  • Виа Гра / Перемирие [2013, Pop, HDRip]
  • Татьяна Котова / Признание [2012, Pop, HDRip]
  • Горячий Шоколад / Две Недели Рая [2013, Pop, HDRip]
  • Ярослава / Это любовь [2012, Pop, HDRip]
  • [Трейлер] Любовный переплет / The Oranges (Джулиан Фарино, драма, мелодрама ...
  • Как по маслу / Butter (Джим Филд Смит, Комедия, 2011) [HDRip-AVC, Профессио ...
  • Как по маслу / Butter (Джим Филд Смит, комедия, 2011) [BDRip-AVC, Профессио ...
  • Как по маслу / Butter (Джим Филд Смит, комедия, 2012) [BDRip-AVC, Профессио ...
  • Как по маслу / Butter (Джим Филд Смит, комедия, 2011) [HDRip, Профессиональ ...
  • Как по маслу / Butter (Джим Филд Смит, комедия, 2011) [HDRip, Профессиональ ...
  • Как по маслу / Butter (Джим Филд Смит, комедия, 2011) [Blu-ray Disc 1080p, ...
  • [Тизер #1] 007: Координаты «Скайфолл» / Skyfall (Сэм Мендес, боевик, трилле ...
  • [Тизер #1] 007: Координаты «Скайфолл» / Skyfall (Сэм Мендес, боевик, трилле ...
  • [Трейлер #1] Великий Гэтсби / The Great Gatsby (Баз Лурман, драма, мелодрам ...
  • [Тизер #1] Отверженные / Les Misérables (Том Хупер, мюзикл, драма) [HDRip 7 ...
  • Madonna / Girl Gone Wild [2012, Pop, HDTV]
  • [Трейлер #1] Джанго освобожденный / Django Unchained (Квентин Тарантино, др ...
  • [Трейлер #1] Джанго освобожденный / Django Unchained (Квентин Тарантино, др ...
  • [Трейлер #1] Трудности быть изгоем / The Perks of Being a Wallflower (Стиве ...
  • [Трейлер #1] Экипаж / Flight (Роберт Земекис, драма) [BDRip 1080p, Гланц (A ...
  • LeBron James 2012 Finals MVP [Баскетбол, 24.06.2012, HD, 720p, H.264, EN, H ...
  • Чемпионат Европы 2012 / TOP 10 Goals & Best Moments [Футбол, 04.07.2012, HD ...
  • [Трейлер #1] Возвращение героя / The Last Stand (Ким Чжи Ун, боевик, трилле ...
  • [Трейлер] Ледяной / The Iceman (Ариэль Вромен, триллер, драма, криминал) [H ...
  • Информация
    Посетители, находящиеся в группе Гости, не могут оставлять комментарии к данной публикации.