вход на сайт

Имя пользователя :
Пароль :

Восстановление пароля Регистрация
[Трейлер] Ледяной / The Iceman (Ариэль Вромен, триллер, драма, криминал) [HDRip 1080р, закадровый (Пётр Гланц)] (30 августа 2012)
Рейтинг:
(голосов: 1)



[img]{THEME}/images/logopost.png[/img]



Ледяной / The Iceman

Год выпуска: 2012
Страна: США
Производство: Millennium Films
Жанр: триллер, драма, криминал

Режиссёр: Ариэль Вромен
В ролях: Крис Эванс, Джеймс Франко, Майкл Шеннон, Вайнона Райдер, Дэвид Швиммер, Рэй Лиотта, Стивен Дорфф, Роберт Дави, Эрин Каммингс

Перевод: закадровый (двухголосый)
Озвучка: Пётр Гланц
Субтитры: нет

Описание: Фильм рассказывает о наемнике Ричарде Куклински, который утверждает, что во времена Холодной войны убил порядка 250 человек.

Качество: HDRip 1080p
Продолжительность: 00:02:26

Премьера (Мир): 30 августа 2012
Премьера (СНГ): неизвестно

Рейтинг ожиданий КиноПоиск: 96% (3 830)

Формат: MP4
Видео кодек: H.264
Аудио кодек: AAC
Видео: 1920 x 1056 (16:9), 23.976 fps, ~8179 kbps avg, 0.168 bit/pixel
Аудио: 44.1 kHz, AAC, 2 ch, ~127.00 kbps avg
Media Info ▼
D:248FilmsThe.Iceman.2012.HDRip.1080p.mp4
General
Complete name : D:248FilmsThe.Iceman.2012.HDRip.1080p.mp4
Format : MPEG-4
Format profile : QuickTime
Codec ID : qt
File size : 145 MiB
Duration : 2mn 26s
Overall bit rate : 8 311 Kbps
Encoded date : UTC 2012-09-01 20:00:00
Tagged date : UTC 2012-09-01 20:00:00
Writing application : Lavf53.10.0
Video #1
ID : 1
Format : AVC
Format/Info : Advanced Video Codec
Format profile : [email protected]
Format settings, CABAC : Yes
Format settings, ReFrames : 1 frame
Codec ID : avc1
Codec ID/Info : Advanced Video Coding
Duration : 2mn 26s
Bit rate : 8 179 Kbps
Width : 1 920 pixels
Height : 1 056 pixels
Display aspect ratio : 16:9
Frame rate mode : Constant
Frame rate : 23.976 fps
Color space : YUV
Chroma subsampling : 4:2:0
Bit depth : 8 bits
Scan type : Progressive
Bits/(Pixel*Frame) : 0.168
Stream size : 143 MiB (98%)
Language : English
Encoded date : UTC 2012-09-01 20:00:00
Tagged date : UTC 2012-09-01 20:00:00
Audio #2
ID : 2
Format : AAC
Format/Info : Advanced Audio Codec
Format profile : LC
Codec ID : 40
Duration : 2mn 26s
Bit rate mode : Constant
Bit rate : 127 Kbps
Channel(s) : 2 channels
Channel positions : Front: L R
Sampling rate : 48.0 KHz
Compression mode : Lossy
Stream size : 2.22 MiB (2%)
Language : English
Encoded date : UTC 2012-09-01 20:00:00
Tagged date : UTC 2012-09-01 20:00:00



1f82a38859fd51f7be1ea48df245688387aee4df[Трейлер] Ледяной / The Iceman (Ариэль Вромен, триллер, драма, криминал) [HDRip 1080р, закадровый (Пётр Гланц)] (30 августа 2012) [Трейлер] Ледяной / The Iceman (Ариэль Вромен, триллер, драма, криминал) [HDRip 1080р, закадровый (Пётр Гланц)] (30 августа 2012) " />

Аплоадер: Админ, дата: 4-09-2012, 07:42, торрент скачан: 359 раз

Понравилась раздача? Посмотрите эти:
  • Ледяной / The Iceman (Ариэль Вромен, драма, криминал, биография, 2012) [BDR ...
  • Ледяной / The Iceman (Ариэль Вромен, драма, криминал, биография, 2012) [HDR ...
  • Афродита / Валера [2012, Pop, HDRip]
  • Татьяна Котова / Признание [2012, Pop, HDRip]
  • Ярослава / Это любовь [2012, Pop, HDRip]
  • Ледяной / The Iceman (Ариэль Вромен, драма, криминал, биография, 2012) [HDR ...
  • Ледяной / The Iceman (Ариэль Вромен, драма, криминал, биография, 2013) [BDR ...
  • Ледяной / The Iceman (Ариэль Вромен, Драма, криминал, биография, 2012) [BDR ...
  • Ледяной / The Iceman (Ариэль Вромен, Драма, криминал, биография, 2012) [BDR ...
  • Ледяной / The Iceman (Ариэль Вромен / Ariel Vromen, Триллер, Драма, Кримина ...
  • Ледяной / The Iceman (Ариэль Вромен, триллер, драма, криминал, биография, 2 ...
  • Ледяной / The Iceman (Ариэль Вромен, триллер, драма, криминал, биография, 2 ...
  • [Трейлер] Любовный переплет / The Oranges (Джулиан Фарино, драма, мелодрама ...
  • [Тизер #1] 007: Координаты «Скайфолл» / Skyfall (Сэм Мендес, боевик, трилле ...
  • [Тизер #1] 007: Координаты «Скайфолл» / Skyfall (Сэм Мендес, боевик, трилле ...
  • [Трейлер #1] Великий Гэтсби / The Great Gatsby (Баз Лурман, драма, мелодрам ...
  • [Тизер #1] Отверженные / Les Misérables (Том Хупер, мюзикл, драма) [HDRip 7 ...
  • [Трейлер #1] Джанго освобожденный / Django Unchained (Квентин Тарантино, др ...
  • [Трейлер #1] Джанго освобожденный / Django Unchained (Квентин Тарантино, др ...
  • [Трейлер #1] Трудности быть изгоем / The Perks of Being a Wallflower (Стиве ...
  • [Трейлер #1] Экипаж / Flight (Роберт Земекис, драма) [BDRip 1080p, Гланц (A ...
  • [Трейлер #1] Возвращение героя / The Last Stand (Ким Чжи Ун, боевик, трилле ...
  • [Трейлер #1] Неудержимый / Bullet to the Head (Уолтер Хилл, боевик, триллер ...
  • [Трейлер] Ледяной / The Iceman (Ариэль Вромен, триллер, драма, криминал) [H ...
  • [Трейлер] Как по маслу / Butter (Джим Филд Смит, комедия) [HDRip 1080р, зак ...
  • Информация
    Посетители, находящиеся в группе Гости, не могут оставлять комментарии к данной публикации.