вход на сайт

Имя пользователя :
Пароль :

Восстановление пароля Регистрация
[Трейлер #1] Трудности быть изгоем / The Perks of Being a Wallflower (Стивен Чбоски,драма, вестерн) [HDRip 720p, AVO (Гланц)] (13 сентября 2012)
Рейтинг:
(голосов: 1)



[img]{THEME}/images/logopost.png[/img]



Трудности быть изгоем / The Perks of Being a Wallflower

Страна: США
Производство: Summit Entertainment
Жанр: драма, вестерн

Режиссёр: Стивен Чбоски
В ролях: Логан Лерман, Эмма Уотсон, Эзра Миллер, Нина Добрев, Пол Радд, Мэй Уитман, Мелани Лински, Кейт Уолш, Дилан МакДермотт, Джонни Симмонс

Перевод: Авторский (Одноголосый, Закадровый)
Озвучка: Петр Гланц
Субтитры: нет

Качество: HD-720p
Продолжительность: 00:02:31

Премьера (Мир): 14 сентября 2012
Премьера (СНГ): 13 сентября 2012

Рейтинг ожиданий КиноПоиск: 92% (7 675)

Формат: MP4
Видео: 1280 x 694 (2.40:1), 30.000 fps, ~5962 kbps avg, 0.224 bit/pixel
Аудио: 48 kHz, AAC, 2 ch, ~128.00 kbps avg
Media Info ▼
General
Complete name : The-Perks-Being-Wallflower.mp4
Format : MPEG-4
Format profile : QuickTime
Codec ID : qt
File size : 110 MiB
Duration : 2mn 31s
Overall bit rate : 6 095 Kbps
Encoded date : UTC 2012-06-07 20:00:00
Tagged date : UTC 2012-06-07 20:00:00
Writing application : Lavf53.10.0
Video #1
ID : 1
Format : AVC
Format/Info : Advanced Video Codec
Format profile : [email protected]
Format settings, CABAC : No
Format settings, ReFrames : 1 frame
Format settings, GOP : M=1, N=2
Codec ID : avc1
Codec ID/Info : Advanced Video Coding
Duration : 2mn 31s
Bit rate mode : Variable
Bit rate : 5 962 Kbps
Width : 1 280 pixels
Height : 694 pixels
Display aspect ratio : 16:9
Frame rate mode : Constant
Frame rate : 30.000 fps
Color space : YUV
Chroma subsampling : 4:2:0
Bit depth : 8 bits
Scan type : Progressive
Bits/(Pixel*Frame) : 0.224
Stream size : 108 MiB (98%)
Language : English
Encoded date : UTC 2012-06-07 20:00:00
Tagged date : UTC 2012-06-07 20:00:00
Audio #2
ID : 2
Format : AAC
Format/Info : Advanced Audio Codec
Format profile : LC
Codec ID : 40
Duration : 2mn 31s
Bit rate mode : Constant
Bit rate : 128 Kbps
Channel(s) : 2 channels
Channel positions : Front: L R
Sampling rate : 48.0 KHz
Compression mode : Lossy
Stream size : 2.31 MiB (2%)
Language : English
Encoded date : UTC 2012-06-07 20:00:00
&
8c17a93780e007d1a26aef322b4fee70afdbd070[Трейлер #1] Трудности быть изгоем / The Perks of Being a Wallflower (Стивен Чбоски,драма, вестерн) [HDRip 720p, AVO (Гланц)] (13 сентября 2012) [Трейлер #1] Трудности быть изгоем / The Perks of Being a Wallflower (Стивен Чбоски,драма, вестерн) [HDRip 720p, AVO (Гланц)] (13 сентября 2012) " />

Аплоадер: Админ, дата: 10-06-2012, 12:57, торрент скачан: 359 раз

Понравилась раздача? Посмотрите эти:
  • Хорошо Быть Тихоней / The Perks Of Being A Wallflower (Стивен Чбоски, Драма ...
  • Хорошо быть тихоней / The Perks of Being a Wallflowe (Стивен Чбоски, драма, ...
  • [iPhone, iPod]Хорошо быть тихоней / The Perks of Being a Wallflower (Стивен ...
  • Хорошо быть тихоней / The Perks of Being a Wallflower (Стивен Чбоски, Драма ...
  • Хорошо быть тихоней / The Perks of Being a Wallflower (Стивен Чбоски, Драма ...
  • Хорошо быть тихоней / The Perks of Being a Wallflower (Стивен Чбоски, Драма ...
  • Хорошо быть тихоней / The Perks of Being a Wallflower (Стивен Чбоски, Драма ...
  • Хорошо быть тихоней / The Perks of Being a Wallflower (Стивен Чбоски / Step ...
  • Хорошо быть тихоней / The Perks of Being a Wallflower (Стивен Чбоски, Драма ...
  • Хорошо быть тихоней / The Perks of Being a Wallflower (Стивен Чбоски, Драма ...
  • Хорошо быть тихоней / The Perks of Being a Wallflower (Стивен Чбоски, драма ...
  • [Трейлер] Любовный переплет / The Oranges (Джулиан Фарино, драма, мелодрама ...
  • [Тизер #1] 007: Координаты «Скайфолл» / Skyfall (Сэм Мендес, боевик, трилле ...
  • [Тизер #1] Отверженные / Les Misérables (Том Хупер, мюзикл, драма) [HDRip 7 ...
  • [Трейлер #1] Джанго освобожденный / Django Unchained (Квентин Тарантино, др ...
  • [Трейлер #1] Джанго освобожденный / Django Unchained (Квентин Тарантино, др ...
  • [Трейлер #1] Экипаж / Flight (Роберт Земекис, драма) [BDRip 1080p, Гланц (A ...
  • [Трейлер] Хорошо быть тихоней / The Perks of Being a Wallflower (Стивен Чбо ...
  • [Трейлер] Ледяной / The Iceman (Ариэль Вромен, триллер, драма, криминал) [H ...
  • [Трейлер] Как по маслу / Butter (Джим Филд Смит, комедия) [HDRip 1080р, зак ...
  • Информация
    Посетители, находящиеся в группе Гости, не могут оставлять комментарии к данной публикации.