вход на сайт

Имя пользователя :
Пароль :

Восстановление пароля Регистрация
[Трейлер #1] Джанго освобожденный / Django Unchained (Квентин Тарантино, драма, вестерн) [HDRip 1080p, AVO (Гланц)] (17 января 2013)
Рейтинг:
(голосов: 1)



[img]{THEME}/images/logopost.png[/img]



Джанго освобожденный / Django Unchained

Страна: США
Производство: The Weinstein Company LLC
Жанр: драма, вестерн

Режиссёр: Квентин Тарантино
В ролях: Леонардо ДиКаприо, Сэмюэл Л. Джексон, Кристоф Вальц, Керри Вашингтон, Джейми Фокс, Зои Белл, Джеймс Римар, Дон Джонсон, Уолтон Гоггинс, Брюс Дерн

Перевод: Авторский (Одноголосый, Закадровый)
Озвучка: Петр Гланц
Субтитры: нет

Качество: HD-1080p
Продолжительность: 00:02:40

Премьера (Мир): 25 декабря 2012
Премьера (СНГ): 17 января 2013

Рейтинг ожиданий КиноПоиск: 94% (25 171)

Формат: MP4
Видео: 1920 x 796 (2.40:1), 30.000 fps, ~7847 kbps avg, 0.171 bit/pixel
Аудио: 48 kHz, AAC, 2 ch, ~128.00 kbps avg
Media Info ▼
D:248FilmsDjango-Unchained.mp4
General
Complete name : D:248FilmsDjango-Unchained.mp4
Format : MPEG-4
Format profile : QuickTime
Codec ID : qt
File size : 153 MiB
Duration : 2mn 40s
Overall bit rate : 7 975 Kbps
Encoded date : UTC 2012-06-06 20:00:00
Tagged date : UTC 2012-06-06 20:00:00
Writing application : Lavf53.10.0
Video #1
ID : 1
Format : AVC
Format/Info : Advanced Video Codec
Format profile : [email protected]
Format settings, CABAC : No
Format settings, ReFrames : 1 frame
Codec ID : avc1
Codec ID/Info : Advanced Video Coding
Duration : 2mn 40s
Bit rate mode : Variable
Bit rate : 7 847 Kbps
Width : 1 920 pixels
Height : 796 pixels
Display aspect ratio : 2.40:1
Frame rate mode : Constant
Frame rate : 30.000 fps
Color space : YUV
Chroma subsampling : 4:2:0
Bit depth : 8 bits
Scan type : Progressive
Bits/(Pixel*Frame) : 0.171
Stream size : 150 MiB (98%)
Language : English
Encoded date : UTC 2012-06-06 20:00:00
Tagged date : UTC 2012-06-06 20:00:00
Audio #2
ID : 2
Format : AAC
Format/Info : Advanced Audio Codec
Format profile : LC
Codec ID : 40
Duration : 2mn 40s
Bit rate mode : Variable
Bit rate : 123 Kbps
Maximum bit rate : 128 Kbps
Channel(s) : 2 channels
Channel positions : Front: L R
Sampling rate : 48.0 KHz
Compression mode : Lossy
Stream size : 2.35 MiB (2%)
Language : English
Encoded date : UTC
7c065ccec418a5642abda6aa88f5d73516416f2b[Трейлер #1] Джанго освобожденный / Django Unchained (Квентин Тарантино, драма, вестерн) [HDRip 1080p, AVO (Гланц)] (17 января 2013) [Трейлер #1] Джанго освобожденный / Django Unchained (Квентин Тарантино, драма, вестерн) [HDRip 1080p, AVO (Гланц)] (17 января 2013) " />

Аплоадер: Админ, дата: 8-06-2012, 22:44, торрент скачан: 359 раз

Понравилась раздача? Посмотрите эти:
  • Джанго освобожденный / Django Unchained (Квентин Тарантино, драма, вестерн, ...
  • Джанго освобожденный / Django Unchained (Квентин Тарантино, Драма, вестерн, ...
  • Джанго освобожденный / Django Unchained (Квентин Тарантино, Драма, вестерн, ...
  • Джанго освобожденный / Django Unchained (Квентин Тарантино, драма, вестерн, ...
  • Джанго освобожденный / Django Unchained (Квентин Тарантино, Драма, вестерн, ...
  • Джанго освобожденный / Django Unchained (Квентин Тарантино, Драма, вестерн, ...
  • Джанго освобожденный / Django Unchained (Квентин Тарантино, Драма, вестерн, ...
  • Джанго освобожденный / Django Unchained (Квентин Тарантино, драма, комедия, ...
  • Джанго освобожденный / Django Unchained (Квентин Тарантино, драма, вестерн, ...
  • Джанго освобожденный / Django Unchained (Квентин Тарантино, драма, вестерн, ...
  • [iPhone, iPod] Джанго освобожденный / Django Unchained (Квентин Тарантино, ...
  • Джанго освобожденный / Django Unchained (Квентин Тарантино, Драма, комедия, ...
  • [EN] Джанго освобожденный / Django Unchained (Квентин Тарантино, драма, вес ...
  • Джанго освобожденный / Django Unchained (Квентин Тарантино, драма, комедия, ...
  • Джанго освобожденный / Django Unchained (Квентин Тарантино, драма, комедия, ...
  • Джанго освобожденный / Django Unchained (Квентин Тарантино, драма, комедия, ...
  • Джанго освобожденный / Django Unchained (Квентин Тарантино, Драма, комедия, ...
  • Джанго освобожденный / Django Unchained (Квентин Тарантино, Драма, комедия, ...
  • [Трейлер #1] Джанго освобожденный / Django Unchained (Квентин Тарантино, др ...
  • [Трейлер] Джанго освобожденный / Django Unchained (Квентин Тарантино,драма, ...
  • Информация
    Посетители, находящиеся в группе Гости, не могут оставлять комментарии к данной публикации.