вход на сайт

Имя пользователя :
Пароль :

Восстановление пароля Регистрация
[Тизер #1] Отверженные / Les Misérables (Том Хупер, мюзикл, драма) [HDRip 720p, Оригинал] (24 января 2013)
Рейтинг:
(голосов: 1)



[img]{THEME}/images/logopost.png[/img]



Отверженные / Les Misérables

Страна: Великобритания
Производство: Working Title Films
Жанр: мюзикл, драма

Режиссёр: Том Хупер
В ролях: Аманда Сайфред, Энн Хэтэуэй, Хью Джекман, Рассел Кроу, Эдди Редмэйн, Саманта Баркс, Аарон Твейт, Колм Уилкинсон

Перевод: оригинал
Субтитры: нет

Качество: HD-720p
Продолжительность: 00:01:37

Премьера (Мир): 14 декабря 2012
Премьера (СНГ): 24 января 2013

Рейтинг ожиданий КиноПоиск: 86% (7 876)

Формат: MP4
Видео: 1280 x 720 (16:9), 29.970 fps, AVC, ~3000 kbps avg, 0.060 bit/pixel
Аудио: 44.1 kHz, AAC, 2 ch, ~85.00 kbps avg
Media Info ▼
D:248FilmsLes-Miserables.mp4
General
Complete name : D:248FilmsLes-Miserables.mp4
Format : MPEG-4
Format profile : QuickTime
Codec ID : qt
File size : 36.1 MiB
Duration : 1mn 37s
Overall bit rate : 3 098 Kbps
Encoded date : UTC 2012-05-29 20:00:00
Tagged date : UTC 2012-05-29 20:00:00
Writing application : Lavf53.10.0
Video #1
ID : 1
Format : AVC
Format/Info : Advanced Video Codec
Format profile : [email protected]
Format settings, CABAC : No
Format settings, ReFrames : 4 frames
Codec ID : avc1
Codec ID/Info : Advanced Video Coding
Duration : 1mn 37s
Bit rate mode : Constant
Bit rate : 3 000 Kbps
Width : 1 280 pixels
Height : 720 pixels
Display aspect ratio : 16:9
Frame rate mode : Variable
Standard : NTSC
Color space : YUV
Chroma subsampling : 4:2:0
Bit depth : 8 bits
Scan type : Progressive
Stream size : 35.0 MiB (97%)
Language : English
Encoded date : UTC 2012-05-29 20:00:00
Tagged date : UTC 2012-05-29 20:00:00
Audio #2
ID : 2
Format : AAC
Format/Info : Advanced Audio Codec
Format profile : LC
Codec ID : 40
Duration : 1mn 37s
Bit rate mode : Variable
Bit rate : 85.5 Kbps
Maximum bit rate : 128 Kbps
Channel(s) : 2 channels
Channel positions : Front: L R
Sampling rate : 48.0 KHz
Compression mode : Lossy
Stream size : 1 019 KiB (3%)
Language : English
Encoded date : UTC 2012-05-29 20:00:00
Tagged date : UTC 2012-05-29 20:00:00



dfd76502d7cd1e8148ade5a3b6dba1490e211bec[Тизер #1] Отверженные / Les Misérables (Том Хупер, мюзикл, драма) [HDRip 720p, Оригинал] (24 января 2013) [Тизер #1] Отверженные / Les Misérables (Том Хупер, мюзикл, драма) [HDRip 720p, Оригинал] (24 января 2013) " />

Аплоадер: Админ, дата: 1-06-2012, 00:58, торрент скачан: 359 раз

Понравилась раздача? Посмотрите эти:
  • Ярослава / Это любовь [2012, Pop, HDRip]
  • NBA 2013-2014 / RS / Highlights [Баскетбол, 04.11.2013, WEB-DL HD/720p, MP4 ...
  • Отверженные / Les Miserables (Том Хупер, Мюзикл, драма, мелодрама, 2012) [H ...
  • Отверженные / Les Miserables (режиссёр, Мюзикл, драма, мелодрама, 2012) [BD ...
  • Отверженные / Les Miserables (Том Хупер, Мюзикл, драма, мелодрама, 2012) [B ...
  • NHL 12/13 / Stanley Cup Playoffs / East / Semifinals / Game 1 / New York Ra ...
  • Отверженные / Les Miserables (Том Хупер, Мюзикл, драма, мелодрама, 2012) [B ...
  • Отверженные / Les Miserables (Том Хупер, Мюзикл, драма, мелодрама, 2012) [B ...
  • Отверженные / Les Miserables (Том Хупер, мюзикл, драма, мелодрама, 2012) [B ...
  • Отверженные / Les Miserables (Том Хупер, мюзикл, драма, мелодрама , 2012) [ ...
  • Отверженные / Les Miserables (Том Хупер, Мюзикл, драма, 2012) [BDRip 720p, ...
  • Отверженные / Les Miserables (Том Хупер, Мюзикл, драма, мелодрама, 2012) [B ...
  • Отверженные / Les Miserables (Том Хупер, Мюзикл, драма, мелодрама, 2012) [B ...
  • Отверженные / Les Miserables (Том Хупер, мюзикл, драма, мелодрама, 2012) [H ...
  • Отверженные / Les Miserables (Том Хупер, мюзикл, драма, 2012) [HDRip, Дубли ...
  • Отверженные / Les Miserables (Том Хупер, мюзикл, драма, 2012) [HDRip, Дубли ...
  • Отверженные / Les Miserables (Том Хупер, мюзикл, драма, мелодрама, 2012) [B ...
  • Отверженные / Les Miserables (Том Хупер, мюзикл, драма, мелодрама , 2012) [ ...
  • [Трейлер] Отверженные / Les Misérables (Том Хупер, мюзикл, драма, мелодрама ...
  • [Тизер #1] 007: Координаты «Скайфолл» / Skyfall (Сэм Мендес, боевик, трилле ...
  • [Тизер #1] 007: Координаты «Скайфолл» / Skyfall (Сэм Мендес, боевик, трилле ...
  • [Трейлер #1] Великий Гэтсби / The Great Gatsby (Баз Лурман, драма, мелодрам ...
  • [Трейлер #1] Джанго освобожденный / Django Unchained (Квентин Тарантино, др ...
  • [Трейлер #1] Джанго освобожденный / Django Unchained (Квентин Тарантино, др ...
  • [Трейлер #1] Трудности быть изгоем / The Perks of Being a Wallflower (Стиве ...
  • Информация
    Посетители, находящиеся в группе Гости, не могут оставлять комментарии к данной публикации.