вход на сайт

Имя пользователя :
Пароль :

Восстановление пароля Регистрация
Порочная страсть / Arbitrage (Николас Джареки, триллер, драма, 2012) [HDRip, Дублированный]
Рейтинг:
(голосов: 1)



[img]{THEME}/images/logopost.png[/img]



• Порочная страсть / Arbitrage •
♥ Год выпуска: 2012
♥ Страна: США
♥ Производство: Alvernia Production
♥ Жанр: триллер, драма

♥ Режиссёр: Николас Джареки
♥ В ролях: Ричард Гир, Сьюзен Сарандон, Тим Рот, Брит Марлинг, Летиция Каста, Нэйт Паркер, Уильям Фридкин, Моника Реймунд, Джош Пэйс, Кристофер Айджмен

♥ Перевод: Дублированный
♥ Субтитры: Отсутствуют

♥ Описание: Роберт Миллер — харизматичный аферист и гениальный любовник. Он привык к тому, что в постелях его всегда ждут жена и любовница, которые, правда, попеременно закатывают ему скандалы, а огромные деньги делаются просто из воздуха. Но дутый бизнес не может держаться долго. Почуяв провал, он стремится поскорее продать свой хедж-фонд крупному банку, прежде чем раскроются его махинации. Непредвиденные события и нелепые ошибки толкают его на отчаянный шаг


MediaInfo ▼
TextGeneral
Complete name : C:Porochnaja.strast.2012.D.HDRip.700Mb.avi
Format : AVI
Format/Info : Audio Video Interleave
File size : 699 MiB
Duration : 1h 46mn
Overall bit rate : 916 Kbps
Writing application : VirtualDubMod 1.5.10.2 (build 2540/release)
Writing library : VirtualDubMod build 2540/release
Video #0
ID : 0
Format : MPEG-4 Visual
Format profile : Advanced [email protected]
Format settings, BVOP : 2
Format settings, QPel : No
Format settings, GMC : No warppoints
Format settings, Matrix : Custom
Codec ID : XVID
Codec ID/Hint : XviD
Duration : 1h 46mn
Bit rate : 778 Kbps
Width : 640 pixels
Height : 352 pixels
Display aspect ratio : 16:9
Frame rate : 23.976 fps
Color space : YUV
Chroma subsampling : 4:2:0
Bit depth : 8 bits
Scan type : Progressive
Compression mode : Lossy
Bits/(Pixel*Frame) : 0.144
Stream size : 594 MiB (85%)
Writing library : XviD 1.2.1 (UTC 2008-12-04)
Audio #1
ID : 1
Format : MPEG Audio
Format version : Version 1
Format profile : Layer 3
Codec ID : 55
Codec ID/Hint : MP3
Duration : 1h 46mn
Bit rate mode : Constant
Bit rate : 128 Kbps
Channel(s) : 2 channels
Sampling rate : 48.0 KHz
Compression mode : Lossy
Stream size : 97.7 MiB (14%)
Alignment : Aligned on interleaves
Interleave, duration : 42 ms (1.00 video frame)
Interleave, preload duration : 504 ms
Writing library : LAME3.99r
Encoding settings : -m s -V 4 -q 2 -lowpass 17 -b 128
♥ Качество: HDRip | Сэмпл | Сравнение скриншотов c этой раздачей
♥ Продолжительность: 01:46:41

♥ Формат: AVI
♥ Видео кодек: XviD
♥ Аудио кодек: MP3
♥ Видео: 640x352 (16:9), 23.976 fps, XviD build 50 ~778 kbps avg, 0.144 bit/pixel
♥ Аудио: 48 kHz, MPEG Layer 3/2 ch, ~128 kbps

♥ Дата премьеры (мир): 21 января 2012
♥ Дата премьеры (РФ): 4 октября 2012, «Парадиз»

Релиз Группы "Virtus"

Стол заказов / Вступление в РГ / Благодарности, критика и другое


c09722dfafd34daeb26340fe729abce3de4023b3Порочная страсть / Arbitrage (Николас Джареки, триллер, драма, 2012) [HDRip, Дублированный] Порочная страсть / Arbitrage (Николас Джареки, триллер, драма, 2012) [HDRip, Дублированный] " />

Аплоадер: Админ, дата: 10-12-2012, 19:34, торрент скачан: 359 раз

Понравилась раздача? Посмотрите эти:
  • Газетчик / The Paperboy (Ли Дэниелс, триллер, 2012) [HDRip, Дублированный]
  • Скуби-Ду! Маска Синего Сокола / Scooby-Doo! Mask Of The Blue Falcon (Оливье ...
  • Порочная страсть / Arbitrage (Николас Джареки, триллер, драма, 2012) [HDRip ...
  • Порочная страсть / Arbitrage (Николас Джареки, Триллер, драма, 2012) [BDRip ...
  • Порочная страсть / Arbitrage (Николас Джареки, Триллер, драма, 2012) [BDRip ...
  • Порочная страсть / Arbitrage (Николас Джареки, Триллер, драма, 2012) [BDRip ...
  • Порочная страсть / Arbitrage (Николас Джареки, Триллер, драма, 2012) [DVD9, ...
  • Порочная страсть / Arbitrage (Николас Джареки, триллер, драма, 2012) [BDRip ...
  • Порочная страсть / Arbitrage (Николас Джареки, триллер, драма, 2012) [BDRi ...
  • Чемпионат Европы 2012 / Группа D / 1-й тур / Украина - Швеция / Спорт 1 [11 ...
  • Tank Feat. T.I. & Kris Stephens / Compliments [2012, RnB,Hip-Hop, HDRip]
  • Порочная страсть / Arbitrage (Николас Джареки, Триллер, драма, 2012) [BDRip ...
  • Порочная страсть / Arbitrage (Николас Джареки, Триллер, драма, 2012) [BDRip ...
  • Последняя сказка Риты (Рената Литвинова, Фентези, драма, детектив, 2012) [D ...
  • Порочная страсть / Arbitrage (Николас Джареки, триллер, драма, 2012) [Blu- ...
  • Неделя в NBA с В.Гомельским / НТВ+ [28.06.2011, SD, XviD, RU, SAT]
  • Чемпионат Европы 2012 / Группа B / 1-й тур / Германия - Португалия / Спорт ...
  • Ничего, кроме правды / Nothing But the Truth (Род Лури, триллер, драма, 200 ...
  • Порочная страсть / Arbitrage (Николас Джареки, триллер, драма, 2012) [DVDRi ...
  • Порочная страсть / Arbitrage (Николас Джареки, триллер, драма, 2012) [DVDRi ...
  • Информация
    Посетители, находящиеся в группе Гости, не могут оставлять комментарии к данной публикации.