вход на сайт

Имя пользователя :
Пароль :

Восстановление пароля Регистрация
Операция Валькирия / Valkyrie (Брайан Сингер, Триллер, драма, военный, история, 2008) [BDRip-AVC, Профессиональный (полное дублирование), Sub]
Рейтинг:
(голосов: 1)



[img]{THEME}/images/logopost.png[/img]



• Операция Валькирия / Valkyrie •
«Цель - Гитлер»

♥ Год выпуска: 2008
♥ Страна: США Германия
♥ Производство: Metro-Goldwyn-Mayer
♥ Жанр: Триллер, драма, военный, история

♥ Режиссёр: Брайан Сингер
♥ В ролях: Том Круз, Маттиас Швейгофер, Том Уилкинсон, Билл Найи, Дэвид Шофилд, Кеннет Брана, Теренс Стамп, Карис ван Хаутен, Кевин МакНолли, Халина Рейн, Эдди Иззард, Кристиан Беркель, Стивен Фрай, Томас Кретшманн

♥ Перевод: Профессиональный (полное дублирование)
♥ Субтитры: Русские (Форсированные)

♥ Описание:
Фильм рассказывает нам реальную историю, произошедшую во времена второй мировой войны. Историю о том, как один немецкий офицер пытался убить Гитлера и тем самым остановить кровопролитную войну. Клаус фон Штауффенберг становится во главе заговорщиков, которые планируют свергнуть Гитлера. Он имеет довольно высокое положение и даже бывает на совещаниях, где присутствует Гитлер. На одно из таких совещаний он проносит в портфеле бомбу, но после взрыва Гитлер остается жив, заговор проваливается, сопротивление остается обезглавленным.♥ Дата премьеры (мир): 25 декабря 2008
♥ Дата премьеры (РФ): 29 января 2009, «Двадцатый Век Фокс СНГ»

♥ Качество: ВDRip-AVC
♥ Продолжительность: 02:00:21

♥ Формат: MKV
♥ Видео кодек: AVC
♥ Аудио кодек: АС3
♥ Видео: 1024 x 552 (1,85:1), 23.976 fps, [email protected] ~3500 kbps avg, 0.258 bit/pixel
♥ Аудио: 48 kHz, AC3, 6 ch, ~640.00 kbps avg

"MediaInfo:" ▼
TextОбщее
Полное имя : Valkyrie.mkv
Формат : Matroska
Версия формата : Version 1
Размер файла : 3,48 Гбайт
Продолжительность : 2 ч. 0 м.
Общий поток : 4135 Кбит/сек
Дата кодирования : UTC 2013-01-25 08:50:50
Программа кодирования : mkvmerge v2.4.1 (Use Me) built on Dec 5 2008 18:30:05
Библиотека кодирования : libebml v0.7.7 + libmatroska v0.8.1

Видео
Идентификатор : 1
Формат : AVC
Формат/Информация : Advanced Video Codec
Профиль формата : [email protected]
Параметр CABAC формата : Да
Параметр ReFrames формата : 10 кадров
Идентификатор кодека : V_MPEG4/ISO/AVC
Продолжительность : 2 ч. 0 м.
Битрейт : 3500 Кбит/сек
Ширина : 1024 пикселя
Высота : 552 пикселя
Соотношение сторон : 1,85:1
Режим частоты кадров : Постоянный
Частота кадров : 23,976 кадра/сек
Цветовое пространство : YUV
Субдискретизация насыщенности : 4:2:0
Битовая глубина : 8 бит
Тип развёртки : Прогрессивная
Бит/(Пиксели*Кадры) : 0.258
Размер потока : 2,87 Гбайт (83%)
Заголовок : Операция «Валькирия» (2008)
Библиотека кодирования : x264 core 129 r2230 1cffe9f
Настройки программы : cabac=1 / ref=10 / deblock=1:-3:-3 / analyse=0x3:0x133 / me=umh / subme=10 / psy=1 / psy_rd=1.00:0.10 / mixed_ref=1 / me_range=48 / chroma_me=1 / trellis=2 / 8x8dct=1 / cqm=0 / deadzone=21,11 / fast_pskip=0 / chroma_qp_offset=-3 / threads=6 / lookahead_threads=1 / sliced_threads=0 / nr=0 / decimate=1 / interlaced=0 / bluray_compat=0 / constrained_intra=0 / bframes=5 / b_pyramid=2 / b_adapt=2 / b_bias=0 / direct=3 / weightb=1 / open_gop=0 / weightp=2 / keyint=240 / keyint_min=22 / scenecut=40 / intra_refresh=0 / rc_lookahead=40 / rc=2pass / mbtree=1 / bitrate=3500 / ratetol=1.0 / qcomp=0.60 / qpmin=10 / qpmax=51 / qpstep=4 / cplxblur=20.0 / qblur=0.5 / ip_ratio=1.40 / aq=1:1.00
Язык : English

Аудио
Идентификатор : 2
Формат : AC-3
Формат/Информация : Audio Coding 3
Расширение режима : CM (complete main)
Параметр Endianness формата : Big
Идентификатор кодека : A_AC3
Продолжительность : 2 ч. 0 м.
Вид битрейта : Постоянный
Битрейт : 640 Кбит/сек
Каналы : 6 каналов
Расположение каналов : Front: L C R, Side: L R, LFE
Частота : 48,0 КГц
Битовая глубина : 16 бит
Метод сжатия : С потерями
Размер потока : 551 Мбайт (15%)
Заголовок : AC3 (Дублированный)
Язык : Russian

Текст
Идентификатор : 3
Формат : UTF-8
Идентификатор кодека : S_TEXT/UTF8
Идентификатор кодека/Информация : UTF-8 Plain Text
Заголовок : Русские (Форсированные)
Язык : Russian

Релиз Группы "Virtus"

Стол заказов / Вступление в РГ / Благодарности, критика и другое


1ba9cd17e6150efb7b8b09b012f9cea61acd9736Операция Валькирия / Valkyrie (Брайан Сингер, Триллер, драма, военный, история, 2008) [BDRip-AVC, Профессиональный (полное дублирование), Sub] Операция Валькирия / Valkyrie (Брайан Сингер, Триллер, драма, военный, история, 2008) [BDRip-AVC, Профессиональный (полное дублирование), Sub] " />

Аплоадер: Админ, дата: 27-01-2013, 20:38, торрент скачан: 359 раз

Понравилась раздача? Посмотрите эти:
  • Кадиллак Рекордс / Cadillac Records (Дарнелл Мартин, драма, мелодрама, биог ...
  • Война миров Z / World War Z [Theatrical Cut] (Марк Форстер, ужасы, фантасти ...
  • Фантомы / Shutter (Масаюки Очиай, ужасы, триллер, детектив, 2008) [BDRip-AV ...
  • Больше, чем любовь / A Lot Like Love (Найджел Коул, Драма, мелодрама, комед ...
  • Запретная любовь / The Edge of Love (Джон Мэйбери, Драма, мелодрама, военны ...
  • Даю год / I Give It a Year (Дэн Мазер, мелодрама, комедия, 2012) [BDRip-AVC ...
  • Паркер / Parker (Тейлор Хэкфорд, Боевик, триллер, криминал, 2013) [BDRip-AV ...
  • Линкольн / Lincoln (Стивен Спилберг, драма, военный, биография, история, 20 ...
  • Операция Валькирия / Valkyrie (Брайан Сингер, триллер, драма, военный, исто ...
  • Суррогат / The Sessions (Бен Луин, Драма, 2012) [BDRip-AVC, Профессиональны ...
  • Операция Валькирия / Valkyrie (Брайан Сингер, Драма, 2008) [BDRip - AVC, Ду ...
  • Операция Валькирия / Valkyrie(Брайан Сингер, 2008 г.,Триллер, драма, военны ...
  • Заражение / Contagion (Стивен Содерберг, триллер, драма, 2011) [BDRip-AVC, ...
  • Драйв / Drive (Николас Виндинг Рёфн, боевик, триллер, драма, криминал, 2011 ...
  • Операция Валькирия / Valkyrie (Брайан Сингер, Триллер, драма, военный, исто ...
  • Морской бой / Battleship (Питер Берг, фантастика, боевик, триллер, приключе ...
  • Эд Вуд / Ed Wood (Тим Бёртон, драма, комедия, биография, 1994) [BDRip-AVC, ...
  • Четыре Рождества / Four Christmases (Сет Гордон, Драма, мелодрама, комедия, ...
  • Невероятный Халк / The Incredible Hulk (Луи Летерье, фантастика, боевик, тр ...
  • Операция Валькирия / Valkyrie (Том Круз,Брайан Сингер, Триллер, драма, воен ...
  • Информация
    Посетители, находящиеся в группе Гости, не могут оставлять комментарии к данной публикации.