вход на сайт

Имя пользователя :
Пароль :

Восстановление пароля Регистрация
Особо опасны / Savages [UNRATED] (Оливер Стоун, Триллер, драма, криминал, 2012) [BDRip-AVC, Дубляж, Оригинал, Sub]
Рейтинг:
(голосов: 1)



[img]{THEME}/images/logopost.png[/img]



Особо опасны / Savages[UNRATED]
«Молодые, красивые, дерзкие»


Год выпуска: 2012
Страна: США
Производство: Ixtlan Corporation, Onda Entertainment, Relativity Media
Жанр: Триллер, драма, криминал

Режиссёр: Оливер Стоун
В ролях: Тейлор Китч, Блейк Лайвли, Аарон Тейлор-Джонсон, Джон Траволта, Бенисио Дель Торо, Сальма Хайек, Эмиль Хирш, Демиан Бишир, Антонио Джарамилло, Хоакин Косио

Перевод: Дубляж, Оригинал (английский)
Субтитры: Русские, английские

Описание: Молодые миллионеры Бен и Чон ведут дела на побережье Калифорнии. Бен — выдающийся ботаник и талантливый бизнесмен, Чон — мастер возвращения долгов и борьбы с конкурентами. В их работе много сложных моментов, ведь они выращивают лучшую в мире траву. Особо серьезные проблемы решает знакомый агент ФБР.

Но с одной не сможет помочь даже он. Сверхприбыльным бизнесом заинтересовался мексиканский картель. Его возглавляет прекрасная Елена, и она нашла главную слабость друзей — и Бен, и Чон принадлежат одной девушке. Ради прелестной О. они готовы на все. Любовь делает нас особо опасными.



Качество: BDRip-AVC | исх. Особо опасны / Savages Blu-Ray Remux (1080p)
Продолжительность:02:21:10 час.

Формат: MKV
Видео кодек: x264
Аудио кодек: AC3
Видео: 1024x426 (2.40:1), 23.976 fps, x264 ~2 562 kbps avg, 0.245 bit/pixel
Аудио#1: 48 kHz, AC3 Dolby Digital, 3/2 (L,C,R,l,r) + LFE ch, ~384.00 kbps avg | Дубляж
Аудио#2: 48 kHz, AC3 Dolby Digital, 3/2 (L,C,R,l,r) + LFE ch, ~448.00 kbps avg | Оригинал (английский)

Дата премьеры (мир): 25 июня 2012
Дата премьеры (РФ): 13 сентября 2012, «UPI»

MediaInfo ▼Полное имя : D:Особо.опасны-Savages.[UNRATED].(2012).[H.264].BDRip.mkv
Формат : Matroska
Версия формата : Version 2
Размер файла : 3,35 Гбайт
Продолжительность : 2 ч. 21 м.
Общий поток : 3393 Кбит/сек
Дата кодирования : UTC 2013-01-23 16:58:34
Программа кодирования : mkvmerge v5.7.0 (The Whirlwind) built on Aug 7 2012 14:11:40
Библиотека кодирования : libebml v1.2.3 + libmatroska v1.3.0

Видео
Идентификатор : 1
Формат : AVC
Формат/Информация : Advanced Video Codec
Профиль формата : [email protected]
Параметр CABAC формата : Да
Параметр ReFrames формата : 8 кадров
Идентификатор кодека : V_MPEG4/ISO/AVC
Продолжительность : 2 ч. 21 м.
Битрейт : 2562 Кбит/сек
Ширина : 1024 пикселя
Высота : 426 пикселей
Соотношение сторон : 2,40:1
Режим частоты кадров : Постоянный
Частота кадров : 23,976 кадра/сек
Цветовое пространство : YUV
Субдискретизация насыщенности : 4:2:0
Битовая глубина : 8 бит
Тип развёртки : Прогрессивная
Бит/(Пиксели*Кадры) : 0.245
Размер потока : 2,46 Гбайт (73%)
Заголовок : Rip by Enigma-Vladislav71
Библиотека кодирования : x264 core 92 r1510 33d382a
Настройки программы : cabac=1 / ref=8 / deblock=1:-2:-2 / analyse=0x3:0x133 / me=umh / subme=10 / psy=1 / psy_rd=1.00:0.00 / mixed_ref=1 / me_range=48 / chroma_me=1 / trellis=2 / 8x8dct=1 / cqm=0 / deadzone=21,11 / fast_pskip=0 / chroma_qp_offset=-2 / threads=3 / sliced_threads=0 / nr=0 / decimate=0 / interlaced=0 / constrained_intra=0 / bframes=8 / b_pyramid=2 / b_adapt=2 / b_bias=0 / direct=3 / wpredb=1 / wpredp=2 / keyint=240 / keyint_min=23 / scenecut=40 / intra_refresh=0 / rc=2pass / mbtree=0 / bitrate=2562 / ratetol=1.0 / qcomp=0.60 / qpmin=10 / qpmax=51 / qpstep=4 / cplxblur=20.0 / qblur=0.5 / ip_ratio=1.40 / pb_ratio=1.30 / aq=1:1.00
Язык : English
Default : Да
Forced : Нет

Аудио #1
Идентификатор : 2
Формат : AC-3
Формат/Информация : Audio Coding 3
Расширение режима : CM (complete main)
Параметр Endianness формата : Big
Идентификатор кодека : A_AC3
Продолжительность : 2 ч. 21 м.
Вид битрейта : Постоянный
Битрейт : 384 Кбит/сек
Каналы : 6 каналов
Расположение каналов : Front: L C R, Side: L R, LFE
Частота : 48,0 КГц
Битовая глубина : 16 бит
Метод сжатия : С потерями
Размер потока : 388 Мбайт (11%)
Язык : Russian
Default : Да
Forced : Нет

Аудио #2
Идентификатор : 3
Фор
8d540a684b6ca114038b220ef99b8903b979b9ffОсобо опасны / Savages [UNRATED] (Оливер Стоун, Триллер, драма, криминал, 2012) [BDRip-AVC, Дубляж, Оригинал, Sub] Особо опасны / Savages [UNRATED] (Оливер Стоун, Триллер, драма, криминал, 2012) [BDRip-AVC, Дубляж, Оригинал, Sub] " />

Аплоадер: Админ, дата: 24-01-2013, 15:51, торрент скачан: 359 раз

Понравилась раздача? Посмотрите эти:
  • Особо опасны / Savages (Оливер Стоун, триллер, драма, криминал, 2012) [BDR ...
  • Особо опасны / Savages (Оливер Стоун, триллер, драма, криминал, 2012) [BDRi ...
  • Особо опасны / Savages (Оливер Стоун, триллер, драма, криминал, 2012) [BDRi ...
  • Особо опасны / Savages [UNRATED] (Оливер Стоун, триллер, драма, криминал, 2 ...
  • Особо опасны / Savages [UNRATED] (Оливер Стоун, Триллер, драма, криминал, 2 ...
  • Особо опасны / Savages (Оливер Стоун, триллер, драма, криминал, 2012) [HDRi ...
  • Особо опасны / Savages [UNRATED] (Оливер Стоун, триллер, драма, криминал, 2 ...
  • Особо опасны / Savages [UNRATED] (Оливер Стоун, Триллер, драма, криминал, 2 ...
  • Особо опасны / Savages [UNRATED] (Оливер Стоун, Триллер, драма, криминал, 2 ...
  • Особо опасны / Savages [UNRATED] (Оливер Стоун, триллер, драма, криминал, 2 ...
  • Особо опасны / Savages [UNRATED] (Оливер Стоун, Триллер, драма, криминал, 2 ...
  • Особо опасны / Savages [UNRATED] (Оливер Стоун, Триллер, драма, криминал, 2 ...
  • Особо опасны / Savages [UNRATED] (Оливер Стоун, Триллер, драма, криминал, 2 ...
  • Особо опасны / Savages [UNRATED] (Оливер Стоун, Триллер, драма, криминал, 2 ...
  • Особо опасны | Расширенная версия / Savages | Unrated Cut (Оливер Стоун, Тр ...
  • Особо опасны / Savages [UNRATED] (Оливер Стоун, триллер, драма, криминал, 2 ...
  • Особо опасны / Savages [UNRATED] (Оливер Стоун, триллер, драма, криминал, 2 ...
  • Особо опасны [Расширенная версия] / Savages [Unrated] (Оливер Стоун, Трилле ...
  • Особо опасны / Savages [UNRATED] (Оливер Стоун, триллер, драма, криминал, 2 ...
  • Особо опасны / Savages [UNRATED] (Оливер Стоун, Триллер, драма, криминал, 2 ...
  • Информация
    Посетители, находящиеся в группе Гости, не могут оставлять комментарии к данной публикации.