вход на сайт

Имя пользователя :
Пароль :

Восстановление пароля Регистрация
Захват / Carjacked (Джон Бонито, триллер, 2011)[BDRip, Профессиональный (многоголосый, закадровый) [НТВ+] + оригинал]
Рейтинг:
(голосов: 1)



[img]{THEME}/images/logopost.png[/img]



Захват / Carjacked

Год выпуска: 2011
Страна: США
Производство: Daniel Grodnik Productions, Films In Motion, Goldrush Entertainment
Жанр: триллер

Режиссёр: Джон Бонито / John Bonito
В ролях: Мария Белло, Стивен Дорфф, Джоанна Кэссиди, Кристен Кер, р Катрин Дент, Тим Гриффин, Молли МакКуин, Гэри Граббс, Дэвид Дженсен, Анджелл Брукс

Перевод: Профессиональный (многоголосый, закадровый) [НТВ+] + оригинал (английский)
Субтитры: Oтсутствуют

Описание: Молодую женщину с ребёнком в её же собственной машине берёт в заложницы грабитель банка.
Качество: BDRip
Продолжительность: 01:29:26

Формат: AVI
Видео кодек: XviD
Аудио кодек: AC3
Видео: 720x304 (2.37:1), 23.976 fps, XviD build 50 ~1708 kbps avg, 0.33 bit/pixe|
Аудио #1: 48 kHz, AC3 Dolby Digital, 2/0 (L,R) ch, ~224 kbps |MVO|
Аудио #2: 48 kHz, AC3 Dolby Digital, 3/2 (L,C,R,l,r) + LFE ch, ~384 kbps |оригинал (английский)|

Дата премьеры (мир): 22 ноября 2011

"MediaInfo" ▼TextGeneral
Complete name : D:ERNAR Zahvat.avi
Format : AVI
Format/Info : Audio Video Interleave
File size : 1.46 GiB
Duration : 1h 29mn
Overall bit rate : 2 332 Kbps
Writing application : VirtualDubMod 1.5.10.3 | www.virtualdub-fr.org || (build 2550/release)
Writing library : VirtualDubMod build 2550/release

Video
ID : 0
Format : MPEG-4 Visual
Format profile : Advanced [email protected]
Format settings, BVOP : 2
Format settings, QPel : No
Format settings, GMC : No warppoints
Format settings, Matrix : Custom
Codec ID : XVID
Codec ID/Hint : XviD
Duration : 1h 29mn
Bit rate : 1 710 Kbps
Width : 720 pixels
Height : 304 pixels
Display aspect ratio : 2.35:1
Frame rate : 23.976 fps
Color space : YUV
Chroma subsampling : 4:2:0
Bit depth : 8 bits
Scan type : Progressive
Compression mode : Lossy
Bits/(Pixel*Frame) : 0.326
Stream size : 1.07 GiB (73%)
Writing library : XviD 1.2.1 (UTC 2008-12-04)

Audio #1
ID : 1
Format : AC-3
Format/Info : Audio Coding 3
Mode extension : CM (complete main)
Codec ID : 2000
Duration : 1h 29mn
Bit rate mode : Constant
Bit rate : 224 Kbps
Channel(s) : 2 channels
Channel positions : Front: L R
Sampling rate : 48.0 KHz
Bit depth : 16 bits
Compression mode : Lossy
Stream size : 143 MiB (10%)
Alignment : Split accross interleaves
Interleave, duration : 42 ms (1.00 video frame)
Interleave, preload duration : 500 ms

Audio #2
ID : 2
Format : AC-3
Format/Info : Audio Coding 3
Mode extension : CM (complete main)
Codec ID : 2000
Duration : 1h 29mn
Bit rate mode : Constant
Bit rate : 384 Kbps
Channel(s) : 6 channels
Channel positions : Front: L C R, Side: L R, LFE
Sampling rate : 48.0 KHz
Bit depth : 16 bits
Compression mode : Lossy
Stream size : 246 MiB (16%)
Alignment : Split accross interleaves
Interleave, duration : 42 ms (1.00 video frame)
Interleave, preload duration : 500 ms





43811f09f1c7d0c852dc9c65ad00eb9a708422e3Захват / Carjacked (Джон Бонито, триллер, 2011)[BDRip, Профессиональный (многоголосый, закадровый) [НТВ+] + оригинал] Захват / Carjacked (Джон Бонито, триллер, 2011)[BDRip, Профессиональный (многоголосый, закадровый) [НТВ+] + оригинал] " />

Аплоадер: Админ, дата: 22-01-2013, 15:36, торрент скачан: 359 раз

Понравилась раздача? Посмотрите эти:
  • Вирус / Flu (Ким Сон Су, Драма, 2013) [HDTVRip, Любительский (двухголосый з ...
  • Орудие смерти / A-i-deul... (Ли Гю Ман, Триллер, криминал, 2011) [DVDRip, П ...
  • Верное дельце / Une pure affaire (Александр Коффре, Боевик, Комедия, Кримин ...
  • Мои герои / Mes heros (Эрик Беснард, комедия, 2012) [HDRip, Профессиональны ...
  • Мужество / Wymyk (Грег Зглински, драма, 2011) [DVDRip, Любительский (одного ...
  • 42 / 42 (Брайан Хелгеленд, драма, биография, спорт, 2013) [BDRip, Профессио ...
  • Неудержимый / Bullet to the Head (Уолтер Хилл, Боевик, триллер, криминал, 2 ...
  • Поймай толстуху, если сможешь [Театральная версия] / Identity Thief [Theatr ...
  • Звук моего голоса / Sound of My Voice (Зал Батманглидж, триллер, драма, 201 ...
  • Слепой поворот / Blind Turn (Роберт Орр, Триллер, драма, детектив, 2012) [W ...
  • 23:59 / 23:59 (Гилберт Чан, Ужасы, 2011) [HDRip, Любительский (одноголосый ...
  • МЫ. Верим в любовь / W.E. (Мадонна, Драма, мелодрама, история, 2011) [BDRip ...
  • Псы войны / The Dogs of War (Джон Ирвин, боевик, драма, приключения, военны ...
  • Плохая актриса / Bad Actress (Роберт Ли Кинг, комедия, 2011) [DVDRip, Профе ...
  • Захват / Carjacked (Джон Бонито, триллер, 2011)[HDRip, Профессиональный (мн ...
  • Супер циклон / Super Cyclone (Лиз Адамс / Liz Adams, боевик, 2012) [HDRip, ...
  • Захват / Carjacked (Джон Бонито, триллер, 2011) [BDRip 720p, Профессиональн ...
  • Трус / Faintheart (Вито Рокко, Комедия, 2008) [BDRip, Профессиональный (дву ...
  • Супершторм в Сиэтле / Seattle Superstorm (Джейсон Бурк, фантастика, боевик ...
  • Инкубус / Inkubus (Гленн Чиано, Ужасы, 2011) [DVDRip, Профессиональный (мно ...
  • Информация
    Посетители, находящиеся в группе Гости, не могут оставлять комментарии к данной публикации.