вход на сайт

Имя пользователя :
Пароль :

Восстановление пароля Регистрация
Город воров [Театральная версия] / The Town [Theatrical cut] (Бен Аффлек, триллер, драма, криминал, 2010) [BDRip-AVC 720p, Дублированный + Авторский + Оригинал + SUB]
Рейтинг:
(голосов: 1)



[img]{THEME}/images/logopost.png[/img]



Город воров / The Town
|Театральная версия / Theatrical cut|
«Добро пожаловать в криминальную столицу Америки»


Год выпуска: 2010
Страна: США
Производство: GK Films, Legendary Pictures, Thunder Road, Warner Bros. Pictures
Жанр: триллер, драма, криминал

Режиссёр: Бен Аффлек
В ролях: Бен Аффлек, Ребекка Холл, Джон Хэмм, Джереми Реннер, Блейк Лайвли, Слэйн, Оуэн Бурк, Титус Уэлливер, Пит Постлетуэйт, Крис Купер

Перевод: Профессиональный (полное дублирование), Авторский (одноголосый закадровый) - Киреев,Оригинал(английский)
Субтитры: softsub (SRT) | Русские (Форсированные для дубляжа, лицензия, Пучков), английские

Описание: Профессиональный вор Даг влюбляется в Клэр — работницу банка, которая переживает не лучшие времена. Девушка ничего не знает о преступной жизни Дага, зато о ней догадывается детектив, чье расследование может поставить крест на отношениях Дага и Клэр.



Качество: BDRip-AVC 720p
Продолжительность: 02:04:44 час.

Формат: MKV
Видео кодек: x264
Аудио кодек: АС3
Видео: 1280x536 (2.40:1), 23.976 fps, x264 ~3 730 kbps avg 0.227 bit/pixel
Аудио#1: 48 kHz, АС3, 3/2 (L,C,R,l,r) + LFE ch, ~384.00 kbps avg- (Профессиональный (полное дублирование))
Аудио#2: 48 kHz, АС3, 3/2 (L,C,R,l,r) + LFE ch, ~448.00 kbps avg- (Авторский (одноголосый закадровый)) - Киреев
Аудио#3: 48 kHz, АС3, 3/2 (L,C,R,l,r) + LFE ch, ~448.00 kbps avg - (Оригинал) - Английский


Дата премьеры (мир): 13 декабря 2000
Дата премьеры (РФ): 19 марта 2001, «Пирамида»

MediaInfo| x264 ▼x264 info ▼x264 [info]: frame I:1245 Avg QP:17.02 size:100072
x264 [info]: frame P:37894 Avg QP:20.47 size: 35838
x264 [info]: frame B:140301 Avg QP:22.39 size: 14298
x264 [info]: consecutive B-frames: 1.8% 2.9% 5.9% 20.9% 18.4% 35.0% 7.8% 3.2% 1.4% 0.6% 0.4% 0.4% 0.2% 0.1% 0.1% 0.3% 0.6%General
Format : Matroska
Format version : Version 2
File size : 4.37 GiB
Duration : 2h 4mn
Overall bit rate : 5 011 Kbps
Movie name : The Town (2010)
Writing application : mkvmerge v3.4.0 (Rapunzel) сборка от Jun 2 2010 23:27:56
Writing library : libebml v0.8.1 + libmatroska v0.9.0

Video
ID : 1
Format : AVC
Format/Info : Advanced Video Codec
Format profile : [email protected]
Format settings, CABAC : Yes
Format settings, ReFrames : 11 frames
Codec ID : V_MPEG4/ISO/AVC
Duration : 2h 4mn
Bit rate : 3 730 Kbps
Width : 1 280 pixels
Height : 536 pixels
Display aspect ratio : 2.40:1
Frame rate : 23.976 fps
Color space : YUV
Chroma subsampling : 4:2:0
Bit depth : 8 bits
Scan type : Progressive
Bits/(Pixel*Frame) : 0.227
Stream size : 3.16 GiB (72%)
Title : BDRip-AVC 720p by nabby_3
Writing library : x264 core 125 r2200 999b753
Encoding settings : cabac=1 / ref=11 / deblock=1:-3:-2 / analyse=0x3:0x133 / me=tesa / subme=11 / psy=1 / psy_rd=1.05:0.05 / mixed_ref=1 / me_range=32 / chroma_me=1 / trellis=2 / 8x8dct=1 / cqm=0 / deadzone=21,11 / fast_pskip=0 / chroma_qp_offset=-3 / threads=9 / lookahead_threads=1 / sliced_threads=0 / nr=0 / decimate=1 / interlaced=0 / bluray_compat=0 / constrained_intra=0 / bframes=16 / b_pyramid=2 / b_adapt=2 / b_bias=0 / direct=3 / weightb=1 / open_gop=0 / weightp=2 / keyint=240 / keyint_min=22 / scenecut=40 / intra_refresh=0 / rc_lookahead=120 / rc=2pass / mbtree=1 / bitrate=3730 / ratetol=1.0 / qcomp=0.70 / qpmin=0 / qpmax=69 / qpstep=4 / cplxblur=20.0 / qblur=0.5 / ip_ratio=1.40 / aq=2:0.92
Language : English
Default : No
Forced : No

Audio #1
ID : 2
Format : AC-3
Format/Info : Audio Coding 3
Mode extension : CM (complete main)
Format settings, Endianness : Big
Codec ID : A_AC3
Duration : 2h 4mn
Bit rate mode : Constant
Bit rate : 384 Kbps
Channel(s) : 6 channels
Channel positions : Front: L C R, Side: L R, LFE
Sampling rate : 48.0 KHz
Bit depth : 16 bits
Compression mode : Lossy
Stream size : 343 MiB (8%)
Title : Dub / AC3 / 5.1 ch / 384 kbps
Language : Russian
Default : Yes
Forced
77b9b088e15d92381939f99a7cddea8285a29dd0Город воров [Театральная версия] / The Town [Theatrical cut] (Бен Аффлек, триллер, драма, криминал, 2010) [BDRip-AVC 720p, Дублированный + Авторский + Оригинал + SUB] Город воров [Театральная версия] / The Town [Theatrical cut] (Бен Аффлек, триллер, драма, криминал, 2010) [BDRip-AVC 720p, Дублированный + Авторский + Оригинал + SUB] " />

Аплоадер: Админ, дата: 3-12-2012, 18:58, торрент скачан: 359 раз

Понравилась раздача? Посмотрите эти:
  • Иллюзия обмана / Now You See Me [Theatrical Cut] (Луи Летерье / Louis Leter ...
  • Поймай толстуху, если сможешь [Театральная версия] / Identity Thief [Theatr ...
  • Добро пожаловать в капкан / Welcome to the Punch (Эрен Криви, боевик, трил ...
  • Город воров / The Town (Бен Аффлек, триллер, драма, криминал, 2010) [HDRip, ...
  • Железный Кулак [Театральная версия] / The Man with the Iron Fists [Theatric ...
  • Заложница 2 [Театральная версия] / Taken 2 [Theatrical Cut] (Оливье Мегатон ...
  • Заложница 2 [Театральная версия] / Taken 2 [Theatrical Cut] (Оливье Мегатон ...
  • Город воров / The Town (Бен Аффлек, триллер, драма, криминал, 2010) [HDRip- ...
  • Город Воров / The Town (Бен Аффлек, триллер, драма, криминал, 2010) [BDRip- ...
  • Город воров / The Town [Театральная версия / Theatrical Cut] (Бен Аффлек / ...
  • Паранормальное явление 2 / Paranormal Activity 2 [Theatrical Сut / Театраль ...
  • Человек-волк [Театральная версия] / The Wolfman [Theatrical cut] (Джо Джонс ...
  • Город воров [Расширенная версия] / The Town [Extended Cut] (Бен Аффлек, три ...
  • Город воров / The Town (Бен Аффлек, триллер, драма, криминал, 2010) [DVD9, ...
  • Несносные Боссы [Театральная версия] / Horrible Bosses [Theatrical Cut] (Се ...
  • Несносные Боссы [Театральная версия] / Horrible Bosses [Theatrical Cut] (Се ...
  • Белоснежка и охотник [Театральная версия] / Snow White and the Huntsman [Th ...
  • Белоснежка и охотник [Театральная версия] / Snow White and the Huntsman [Th ...
  • Патруль / End of Watch (Дэвид Эйр, Триллер, драма, криминал, 2012) [BDRip 7 ...
  • [EN] Город воров / The Town (Бен Аффлек, триллер, драма, криминал, 2010) [D ...
  • Город воров / The Town (Бен Аффлек, триллер, драма, криминал, 2010) [HDRip, ...
  • Город воров / The Town [Театральная версия / Theatrical Cut] (Бен Аффлек, т ...
  • Город воров / The Town [EXTENDED] (Бен Аффлек / триллер, драма, криминал / ...
  • Город воров / The Town (Бен Аффлек, триллер, драма, криминал, 2010) [DVD5, ...
  • Город воров / The Town [Расширенная версия / Extended cut] (Бен Аффлек / Be ...
  • Информация
    Посетители, находящиеся в группе Гости, не могут оставлять комментарии к данной публикации.