вход на сайт

Имя пользователя :
Пароль :

Восстановление пароля Регистрация
Патруль / End of Watch (Дэвид Эйр, Триллер, драма, криминал, 2012) [BDRip-AVC, Дубляж, Оригинал (английский), Sub]
Рейтинг:
(голосов: 1)



[img]{THEME}/images/logopost.png[/img]



Патруль / End of Watch
«Где правит адреналин, нет места для страха»


Год выпуска: 2012
Страна: США
Производство: Crave Films, Emmett/Furla Films, Envision Entertainment Corporation
Жанр: Триллер, драма, криминал

Режиссёр: Дэвид Эйр
В ролях: Джейк Джилленхол, Майкл Пенья, Анна Кендрик, Натали Мартинез, Америка Феррера, Фрэнк Грилло, Дэвид Харбор, Кле Шахид Слоун, Джейм Фицсаймонс, Коуди Хорн...

Перевод: Дубляж, Оригинал (английский)
Субтитры: Английские, русские

Описание: Они были лучшими копами Лос-Анджелеса. Бесстрашные и везучие напарники, они стали друг другу как братья. Но однажды парни залезли в самое логово преступного мира города, по-глупому подставились и сами стали мишенью… Кто успеет первым разрядить обойму?...




Качество: BDRip-AVC | Сэмпл
Продолжительность:01:48:32 час.


Формат: MKV
Видео кодек: x264
Аудио кодек: AC3
Видео: 1024x576(16:9), 24.000 fps, x264 ~2 108 kbps avg, 0.149 bit/pixel
Аудио#1: 48 kHz, AC3 Dolby Digital, 3/2 (L,C,R,l,r) + LFE ch, ~384 kbps- (Дубляж)
Аудио#2: 48 kHz, AC3 Dolby Digital, 3/2 (L,C,R,l,r) + LFE ch, ~384 kbps - (Оригинал)

Дата премьеры (мир): 8 сентября 2012
Дата премьеры (РФ): 20 сентября 2012, «Парадиз»

MediaInfo ▼

General
Unique ID : 214583889406981840724223494862041146800 (0xA16F5A93E51E62B0921F118C9DE665B0)
Complete name : Patrul.2012.D.BDRip.x264.potroks.mkv
Format : Matroska
Format version : Version 2
File size : 2.18 GiB
Duration : 1h 48mn
Overall bit rate : 2 875 Kbps
Movie name : -=POTROKS=-
Encoded date : UTC 2012-11-28 08:26:53
Writing application : mkvmerge v5.7.0 (The Whirlwind) built on Jul 8 2012 20:08:51
Writing library : libebml v1.2.3 + libmatroska v1.3.0

Video
ID : 1
Format : AVC
Format/Info : Advanced Video Codec
Format profile : [email protected]
Format settings, CABAC : Yes
Format settings, ReFrames : 12 frames
Codec ID : V_MPEG4/ISO/AVC
Duration : 1h 48mn
Bit rate : 2 108 Kbps
Width : 1 024 pixels
Height : 576 pixels
Display aspect ratio : 16:9
Frame rate mode : Constant
Frame rate : 24.000 fps
Color space : YUV
Chroma subsampling : 4:2:0
Bit depth : 8 bits
Scan type : Progressive
Bits/(Pixel*Frame) : 0.149
Stream size : 1.55 GiB (71%)
Title : Патруль
Writing library : x264 core 128 r2216M 198a7ea
Encoding settings : cabac=1 / ref=13 / deblock=1:-3:-2 / analyse=0x3:0x133 / me=umh / subme=11 / psy=1 / psy_rd=1.05:0.00 / mixed_ref=1 / me_range=48 / chroma_me=1 / trellis=2 / 8x8dct=1 / cqm=0 / deadzone=21,11 / fast_pskip=0 / chroma_qp_offset=-2 / threads=4 / lookahead_threads=1 / sliced_threads=0 / nr=0 / decimate=1 / interlaced=0 / bluray_compat=0 / constrained_intra=0 / bframes=14 / b_pyramid=1 / b_adapt=2 / b_bias=0 / direct=3 / weightb=1 / open_gop=0 / weightp=2 / keyint=240 / keyint_min=24 / scenecut=40 / intra_refresh=0 / rc_lookahead=240 / rc=2pass / mbtree=1 / bitrate=2108 / ratetol=1.0 / qcomp=0.70 / qpmin=0 / qpmax=64 / qpstep=3 / cplxblur=20.0 / qblur=0.5 / vbv_maxrate=20000 / vbv_bufsize=25000 / nal_hrd=none / ip_ratio=1.35 / aq=1:0.80
Language : English
Default : Yes
Forced : No

Audio #1
ID : 2
Format : AC-3
Format/Info : Audio Coding 3
Mode extension : CM (complete main)
Format settings, Endianness : Big
Codec ID : A_AC3
Duration : 1h 48mn
Bit rate mode : Constant
Bit rate : 384 Kbps
Channel(s) : 6 channels
Channel positions : Front: L C R, Side: L R, LFE
Sampling rate : 48.0 KHz
Bit depth : 16 bits
Compression mode : Lossy
Delay relative to video : 59ms
Stream size : 298 MiB (13%)
Title : Dub | DD 5.1 @ 384 kbps
Language : Russian
Default : Yes
Forced : No

Audio #2
ID : 3
Format : AC-3
Format/Info : Audio Coding 3
Mode extension : CM (complete main)
Format settings, Endianness : Big
Codec ID : A_AC3
Duration : 1h 48mn
Bit rate mode : Constant
Bit rate : 384 Kbps
Channel(s) : 6 channels
Channel positions : Front: L C R, Side: L R, LFE
e9c5df49b17d65bd603b6b2419903dab7f3324b0Патруль / End of Watch (Дэвид Эйр, Триллер, драма, криминал, 2012) [BDRip-AVC, Дубляж, Оригинал (английский), Sub] Патруль / End of Watch (Дэвид Эйр, Триллер, драма, криминал, 2012) [BDRip-AVC, Дубляж, Оригинал (английский), Sub] " />

Аплоадер: Админ, дата: 28-11-2012, 15:57, торрент скачан: 359 раз

Понравилась раздача? Посмотрите эти:
  • Соучастник / Collateral (Майкл Манн, Триллер, драма, криминал, 2004) [BDRip ...
  • Синистер / Sinister (Скотт Дерриксон, ужасы, детектив, 2012) [BDRip-AVC, Ду ...
  • 007: Координаты «Скайфолл» / Skyfall (Сэм Мендес, Боевик, триллер, криминал ...
  • Черный дрозд / Deadfall (Штефан Руцовицки, Триллер, драма, криминал, 2012) ...
  • Патруль / End of Watch (Дэвид Эйр, Триллер, драма, криминал, 2012) [HDRip-A ...
  • Патруль / End of Watch (Дэвид Эйр, Триллер, драма, криминал, 2012) [BDRip-A ...
  • [ENG] Патруль / End of Watch (Дэвид Эйр, Триллер, драма, криминал, 2012) [H ...
  • Патруль / End of Watch (Дэвид Эйр, Триллер, драма, криминал, 2012) [HDRip-A ...
  • Шаг вперед 4 / Step Up Revolution (Скотт Спир, Драма, мелодрама, музыка, 20 ...
  • Универсальный солдат 4 / Universal Soldier: Day of Reckoning (Джон Хайамс, ...
  • Коллекционер 2 / The Collection (Маркус Данстэн, ужасы, боевик, триллер , 2 ...
  • Патруль / End of Watch (Дэвид Эйр, Триллер, драма, криминал, 2012) [DVD9, Д ...
  • Патруль / End of Watch (Дэвид Эйр, Триллер, драма, криминал, 2012) [DVD5, Д ...
  • Ворон / The Raven (Джеймс МакТиг, Триллер, детектив, 2012) [BDRip 720p, Дуб ...
  • Пираньи 3DD / Piranha 3DD (Джон Гулажер, ужасы, триллер, комедия, 2012) [BD ...
  • Красные огни / Red Lights (Родриго Кортес, Ужасы, триллер, драма, 2012) [BD ...
  • Красные огни / Red Lights (Родриго Кортес, Ужасы, триллер, драма, 2012) [BD ...
  • Цунами 3D / Bait (Кимбл Рендалл, Ужасы, боевик, триллер, 2011) [BDRip 720p ...
  • Красные огни / Red Lights (Родриго Кортес, триллер, драма, детектив, 2012) ...
  • Патруль / End of Watch (Дэвид Эйр, Триллер, драма, криминал, 2012) [BDRip 7 ...
  • [Phone, iPod] Патруль / End of Watch (Дэвид Эйер, триллер, драма, криминал, ...
  • Патруль / End of Watch (Дэвид Эйр, Триллер, драма, криминал, 2012) [Blu-ray ...
  • Патруль / End of Watch (Дэвид Эйр, Триллер, драма, криминал, 2012) [BDRip, ...
  • Патруль / End of Watch (Дэвид Эйр, триллер, драма, криминал, 2012) [BDRip, ...
  • Патруль / End of Watch (Дэвид Эйр, Триллер, драма, криминал, 2012) [HDRip, ...
  • Информация
    Посетители, находящиеся в группе Гости, не могут оставлять комментарии к данной публикации.