вход на сайт

Имя пользователя :
Пароль :

Восстановление пароля Регистрация
Красные огни / Red Lights (Родриго Кортес, триллер, драма, детектив, 2012) [BDRip-AVC, Дублированный + Оригинал]
Рейтинг:
(голосов: 1)



[img]{THEME}/images/logopost.png[/img]



Красные огни / Red Lights
«Готов ли ты поверить в это?»

Год выпуска: 2012
Страна: Испания | США
Производство: Antena 3 Films, Cindy Cowan Entertainment, Nostromo Pictures
Жанр: триллер, драма, детектив

Режиссёр: Родриго Кортес | Rodrigo Cortes
В ролях: Киллиан Мёрфи (Tom Buckley), Сигурни Уивер (Margaret Matheson), Роберт Де Ниро (Simon Silver), Элизабет Олсен (Sally Owen), Тоби Джонс (Paul Shackleton), Джоэли Ричардсон (Monica Handsen), Крэйг Робертс (Ben), Берн Горман (Benedict Cohen), Карен Шенас-Дэвид (Dana), Леонардо Сбаралья (Palladino)

Перевод: 1 - Профессиональный (полное дублирование)
2 - Оригинал (Английский)
Субтитры: Отсутствуют

Описание:
Ученые-скептики Маргарет Мэтисон и ее ассистент, Том Бакли, занимаются разоблачением шарлатанов. Изучение паранормального приводит их к столкновению с давним противником доктора Мэтисон — человеком по имени Сильвер.
Объявив о своем возвращении, Сильвер впервые за многие годы выступает перед широкой публикой. Знавшие экстрасенса люди не забыли, что незадолго до добровольного ухода Сильвера со сцены таинственной смертью погиб основной критик его деятельности.Дата премьеры (мир): 20 января 2012
Дата премьеры (РФ): 19 июля 2012, «Парадиз»
Релиз на DVD: 24 сентября 2012, «Новый Диск»
Релиз на Blu-Ray: 24 сентября 2012, «Новый Диск»
Автор Рипа - AVT83
Качество: BDRip - AVC 720р | исх. Красные огни / Red Lights (2012) Blu-ray 1080p MPEG-2 DTS 5.1
Продолжительность: 01:53:51

Формат: MKV
Видео кодек: H.264
Аудио кодек: AC3
Видео: 1280x544 (2.35:1), 23,976 fps, H.264 ~3 331 kbps avg, 0.200 bit/pixel
Аудио #1: 48 kHz, AC3, 3/2 (L,C,R,l,r) + LFE ch, ~448.00 kbps avg | Профессиональный (полное дублирование)
Аудио #2: 48 kHz, AC3, 3/2 (L,C,R,l,r) + LFE ch, ~448.00 kbps avg | Оригинал (Английский)
MediaInfo ▼Format : Matroska
Format version : Version 2
File size : 3.36 GiB
Duration : 1h 53mn
Overall bit rate : 4 229 Kbps
Encoded date : UTC 2012-09-21 06:25:36
Writing application : mkvmerge v4.0.0 (The Stars were mine) built on Jun 6 2010 16:18:42
Writing library : libebml v1.0.0 + libmatroska v1.0.0

Video
ID : 1
Format : AVC
Format/Info : Advanced Video Codec
Format profile : [email protected]
Format settings, CABAC : Yes
Format settings, ReFrames : 12 frames
Codec ID : V_MPEG4/ISO/AVC
Duration : 1h 53mn
Bit rate : 3 331 Kbps
Width : 1 280 pixels
Height : 544 pixels
Display aspect ratio : 2.35:1
Frame rate : 23.976 fps
Color space : YUV
Chroma subsampling : 4:2:0
Bit depth : 8 bits
Scan type : Progressive
Bits/(Pixel*Frame) : 0.200
Stream size : 2.58 GiB (77%)
Writing library : x264 core 119 r2106 07efeb4
Encoding settings : cabac=1 / ref=12 / deblock=1:-2:-1 / analyse=0x3:0x113 / me=umh / subme=10 / psy=1 / psy_rd=1.04:0.10 / mixed_ref=1 / me_range=32 / chroma_me=1 / trellis=2 / 8x8dct=1 / cqm=0 / deadzone=21,11 / fast_pskip=0 / chroma_qp_offset=-3 / threads=6 / sliced_threads=0 / nr=0 / decimate=0 / interlaced=0 / bluray_compat=0 / constrained_intra=0 / bframes=9 / b_pyramid=2 / b_adapt=2 / b_bias=0 / direct=3 / weightb=1 / open_gop=0 / weightp=2 / keyint=240 / keyint_min=23 / scenecut=40 / intra_refresh=0 / rc_lookahead=60 / rc=2pass / mbtree=1 / bitrate=3331 / ratetol=1.0 / qcomp=0.65 / qpmin=0 / qpmax=69 / qpstep=4 / cplxblur=20.0 / qblur=0.5 / ip_ratio=1.40 / aq=1:1.00
Language : English
Default : No
Forced : No

Audio #1
ID : 2
Format : AC-3
Format/Info : Audio Coding 3
Mode extension : CM (complete main)
Format settings, Endianness : Big
Codec ID : A_AC3
Duration : 1h 53mn
Bit rate mode : Constant
Bit rate : 448 Kbps
Channel(s) : 6 channels
Channel positions : Front: L C R, Side: L R, LFE
Sampling rate : 48.0 KHz
Bit depth : 16 bits
Compression mode : Lossy
Stream size : 365 MiB (11%)
Title : Дубляж
Language : Russian
Default : Yes
Forced : No

Audio
c6b9e651748b1e478abaf35d33caa197e29d656bКрасные огни / Red Lights (Родриго Кортес, триллер, драма, детектив, 2012) [BDRip-AVC, Дублированный + Оригинал] Красные огни / Red Lights (Родриго Кортес, триллер, драма, детектив, 2012) [BDRip-AVC, Дублированный + Оригинал] " />

Аплоадер: Админ, дата: 28-10-2012, 22:18, торрент скачан: 359 раз

Понравилась раздача? Посмотрите эти:
  • FLO / NRG [2012, Pop, Dance, MasterRip]
  • Хроника / Chronicle (Джошуа Транк, фантастика, боевик, триллер, драма, 2012 ...
  • Погоня / Abduction (Джон Синглтон, боевик, триллер, драма, детектив, 2011) ...
  • Жизнь Пи / Life Of Pi (Энг Ли, Драма, приключения, 2012) [BDRip 1080p, Проф ...
  • Экипаж / Flight (Роберт Земекис, Драма, 2012) [BDRip-AVC, Профессиональный ...
  • Голодный кролик атакует / Seeking Justice (Роджер Дональдсон / Roger Donald ...
  • Красные огни / Red Lights (Родриго Кортес, Ужасы, триллер, драма, 2012) [BD ...
  • Красные огни / Red Lights (Родриго Кортес, Ужасы, триллер, драма, 2012) [BD ...
  • Патруль / End of Watch (Дэвид Эйр, Триллер, драма, криминал, 2012) [BDRip-A ...
  • Закон доблести / Act of Valor (Майк МакКой, Скотт Во, боевик, триллер, прик ...
  • Коллекционер 2 / The Collection (Маркус Данстэн, ужасы, боевик, триллер , 2 ...
  • Ворон / The Raven (Джеймс МакТиг, Триллер, детектив, 2012) [BDRip 720p, Дуб ...
  • Красные огни / Red Lights (Родриго Кортес, Ужасы, триллер, драма, 2012) [BD ...
  • Красные огни / Red Lights (Родриго Кортес, Ужасы, триллер, драма, 2012) [BD ...
  • Красные огни / Red Lights (Родриго Кортес, Ужасы, триллер, драма, 2012) [BD ...
  • Красные огни / Red Lights (Родриго Кортес, Триллер, драма, детектив, 2012) ...
  • Красные огни / Red Lights (Родриго Кортес, Ужасы, триллер, драма, 2012) [Bl ...
  • Красные огни / Red Lights (Родриго Кортес, триллер, драма, детектив, 2012) ...
  • Патруль / End of Watch (Дэвид Эйр, Триллер, драма, криминал, 2012) [BDRip 7 ...
  • [Phone, iPod] Красные Огни / Red Lights (Родриго Кортес, триллер, драма, де ...
  • Красные огни / Red Lights (Родриго Кортес, Ужасы, триллер, драма, 2012) [HD ...
  • Красные огни / Red Lights (Родриго Кортес, Ужасы, Триллер, Драма, 2012) [48 ...
  • Красные огни / Red Lights (Родриго Кортес, Ужасы, триллер, драма, 2012) [HD ...
  • Красные огни / Red Lights (Родриго Кортес, Ужасы, Триллер, Драма, 2012) [32 ...
  • Красные огни / Red Lights (Родриго Кортес, Ужасы, триллер, драма, 2012) [BD ...
  • Информация
    Посетители, находящиеся в группе Гости, не могут оставлять комментарии к данной публикации.