вход на сайт

Имя пользователя :
Пароль :

Восстановление пароля Регистрация
Красные огни / Red Lights (Родриго Кортес, Ужасы, триллер, драма, 2012) [BDRip-AVC, Дубляж, Sub]
Рейтинг:
(голосов: 1)



[img]{THEME}/images/logopost.png[/img]



Красные Огни / Red Lights
«Готов ли ты поверить в это?»


Год выпуска: 2012
Страна: Испания, США
Производство: Antena 3 Films, Cindy Cowan Entertainment, Nostromo Pictures
Жанр: Ужасы, триллер, драма

Режиссёр: Родриго Кортес
В ролях: Роберт Де Ниро, Сигурни Уивер, Киллиан Мёрфи, Элизабет Олсен, Тоби Джонс, Джоэли Ричардсон, Крэйг Робертс, Берн Горман, Карен Шенас-Дэвид, Жан Корнет

Перевод: Дубляж
Субтитры: русские, английские

Описание: Парапсихолог Маргарэт Мэтисон изучает паранормальные явления и уже стоит на пороге потрясающих открытий. В своих исследованиях она обращается за помощью к знаменитому когда-то экстрасенсу, который соглашается вернуться к своему занятию спустя 30 лет, не подозревая, чем могут обернуться опасные опыты с неизвестным…
Качество: BDRip-AVC | Сэмпл
Продолжительность:01:53:51 час.


Формат: MKV
Видео кодек: x264
Аудио кодек: AC3
Видео: 912x388 (2,35:1), 23,976 fps, x264 ~1 372 kbps avg, 0.162 bit/pixel
Аудио:48 kHz, AC3 Dolby Digital, 3/2 (L,C,R,l,r) + LFE ch, ~448 kbps - (Дубляж)


Дата премьеры (мир): 20 января 2012
Дата премьеры (РФ): 19 июля 2012, «Парадиз»


MediaInfo ▼ General
Unique ID : 185878386542479968264715022033772148157 (0x8BD6E0044D81093B94BD9DDAB4B0F5BD)
Complete name : D:Krasnye.ogni.2012.x264.BDRip.(AVC).fanatus.mkv
Format : Matroska
Format version : Version 2
File size : 1.45 GiB
Duration : 1h 53mn
Overall bit rate : 1 822 Kbps
Movie name : Red Lights (2012) - fanatus
Encoded date : UTC 2012-09-23 05:28:03
Writing application : mkvmerge v3.4.0 (Rapunzel) сборка от May 15 2010 09:38:20
Writing library : libebml v0.8.0 + libmatroska v0.9.0

Video
ID : 1
Format : AVC
Format/Info : Advanced Video Codec
Format profile : [email protected]
Format settings, CABAC : Yes
Format settings, ReFrames : 11 frames
Codec ID : V_MPEG4/ISO/AVC
Duration : 1h 53mn
Bit rate : 1 372 Kbps
Width : 912 pixels
Height : 388 pixels
Display aspect ratio : 2.35:1
Frame rate : 23.976 fps
Color space : YUV
Chroma subsampling : 4:2:0
Bit depth : 8 bits
Scan type : Progressive
Bits/(Pixel*Frame) : 0.162
Stream size : 1.06 GiB (73%)
Title : Red Lights (2012)
Writing library : x264 core 128 r2216 198a7ea
Encoding settings : cabac=1 / ref=11 / deblock=1:-3:-3 / analyse=0x3:0x133 / me=umh / subme=11 / psy=1 / psy_rd=0.95:0.00 / mixed_ref=1 / me_range=48 / chroma_me=1 / trellis=2 / 8x8dct=1 / cqm=0 / deadzone=21,11 / fast_pskip=0 / chroma_qp_offset=-2 / threads=16 / lookahead_threads=2 / sliced_threads=0 / nr=0 / decimate=0 / interlaced=0 / bluray_compat=0 / constrained_intra=0 / bframes=13 / b_pyramid=2 / b_adapt=2 / b_bias=0 / direct=3 / weightb=1 / open_gop=0 / weightp=2 / keyint=240 / keyint_min=23 / scenecut=40 / intra_refresh=0 / rc_lookahead=80 / rc=2pass / mbtree=1 / bitrate=1372 / ratetol=1.0 / qcomp=0.60 / qpmin=0 / qpmax=69 / qpstep=4 / cplxblur=20.0 / qblur=0.5 / ip_ratio=1.40 / aq=1:1.00 / zones=155398,163799,q=40
Language : English
Default : Yes
Forced : No

Audio
ID : 2
Format : AC-3
Format/Info : Audio Coding 3
Mode extension : CM (complete main)
Format settings, Endianness : Big
Codec ID : A_AC3
Duration : 1h 53mn
Bit rate mode : Constant
Bit rate : 448 Kbps
Channel(s) : 6 channels
Channel positions : Front: L C R, Side: L R, LFE
Sampling rate : 48.0 KHz
Bit depth : 16 bits
Compression mode : Lossy
Stream size : 365 MiB (25%)
Title : Dub
Language : Russian
Default : Yes
Forced : Yes

Text #1
ID : 3
Format : UTF-8
Codec ID : S_TEXT/UTF8
Codec ID/Info : UTF-8 Plain Text
Title : Full
Language : Russian
Default : No
Forced : No

Text #2
ID : 4
Format : UTF-8
Codec ID : S_TEXT/UTF8
Codec ID/Info : UTF-8 Plain Text
Title : Full
Language : English
Default : No
Forced : No

Text #3
ID : 5
Format : UTF-8
Codec ID : S_TEXT/UTF8
Codec ID/Info : UTF-8 Plain Text
Title : Full SDH
28443aa428ca66489a8be3cc1bea2aa167c63f90Красные огни / Red Lights (Родриго Кортес, Ужасы, триллер, драма, 2012) [BDRip-AVC, Дубляж, Sub] Красные огни / Red Lights (Родриго Кортес, Ужасы, триллер, драма, 2012) [BDRip-AVC, Дубляж, Sub] " />

Аплоадер: Админ, дата: 23-09-2012, 16:39, торрент скачан: 359 раз

Понравилась раздача? Посмотрите эти:
  • 007: Координаты «Скайфолл» / Skyfall (Сэм Мендес, Боевик, триллер, криминал ...
  • Жажда странствий / Wanderlust (Дэвид Уэйн, Мелодрама, комедия, 2012) [BDRip ...
  • Немножко женаты / The Five-Year Engagement (Николас Столлер, Мелодрама, ком ...
  • Красные огни / Red Lights (Родриго Кортес, Ужасы, триллер, драма, 2012) [BD ...
  • Белоснежка и охотник [Театральная версия] / Snow White and the Huntsman [Th ...
  • Красные огни / Red Lights (Родриго Кортес, триллер, драма, детектив, 2012) ...
  • Патруль / End of Watch (Дэвид Эйр, Триллер, драма, криминал, 2012) [BDRip-A ...
  • Хижина в лесу / The Cabin in the Woods (Дрю Годдард, Ужасы, фантастика, три ...
  • Красные огни / Red Lights (Родриго Кортес, Ужасы, триллер, драма, 2012) [BD ...
  • Красные огни / Red Lights (Родриго Кортес, Ужасы, триллер, драма, 2012) [BD ...
  • Красные огни / Red Lights (Родриго Кортес, Ужасы, триллер, драма, 2012) [BD ...
  • Красные огни / Red Lights (Родриго Кортес, Триллер, драма, детектив, 2012) ...
  • Красные огни / Red Lights (Родриго Кортес, Ужасы, триллер, драма, 2012) [Bl ...
  • Красные огни / Red Lights (Родриго Кортес, триллер, драма, детектив, 2012) ...
  • [Phone, iPod] Красные Огни / Red Lights (Родриго Кортес, триллер, драма, де ...
  • Красные огни / Red Lights (Родриго Кортес, Ужасы, триллер, драма, 2012) [HD ...
  • Красные огни / Red Lights (Родриго Кортес, Ужасы, Триллер, Драма, 2012) [48 ...
  • Красные огни / Red Lights (Родриго Кортес, Ужасы, триллер, драма, 2012) [HD ...
  • Красные огни / Red Lights (Родриго Кортес, Ужасы, Триллер, Драма, 2012) [32 ...
  • Красные огни / Red Lights (Родриго Кортес, Ужасы, триллер, драма, 2012) [BD ...
  • Информация
    Посетители, находящиеся в группе Гости, не могут оставлять комментарии к данной публикации.