вход на сайт

Имя пользователя :
Пароль :

Восстановление пароля Регистрация
Сексуальная тварь / Sexy Beast (Джонатан Глейзер, драма, криминал, 2000) [BDRip-AVC, Пофессиональный (многоголосый, закадровый), +Оригинал]
Рейтинг:
(голосов: 1)



[img]{THEME}/images/logopost.png[/img]



«Сексуальная тварь / Sexy Beast»

«Theres a bit of the beast in all of us.»

¤ Год выпуска: 2000
¤ Страна:ВеликобританияИспания
¤ Производство: FilmFour, Kanzaman S.A., Recorded Picture Company (RPC)
¤ Жанр: драма, криминал

¤ Режиссёр: Джонатан Глейзер / Jonathan Glazer
¤ В ролях: Рэй Уинстон, Бен Кингсли, Иэн МакШейн, Аманда Редман, Джеймс Фокс, Каван Кендалл, Джулианна Уайт, Альваро Монья, Роберт Атико

¤ Перевод: Пофессиональный (многоголосый, закадровый) +Оригинал
¤ Озвучка: не известно
¤ Субтитры: нет

« Описание »
Проведя почти всю жизнь за решеткой, гангстер Гэл Доув решил уйти на покой и вместе с любимой женой поселиться в Испании. Но однажды, когда Гэл нежился на солнышке и потягивал пиво, к нему явился незванный гость.

Бритоголовый Дон Логан, дикий, безумный и злобный кореш Гэла, намерен заставить его вернуться в Лондон, чтобы провернуть последнее, но очень крупное дело — настоящее «ограбление века»…



« Тех.Данные »
¤ Качество: BDRip-AVC
¤ Продолжительность: 01:28:17 часа

¤ Формат: Matroska -MKV-
¤ Видео кодек: AVC [email protected]
¤ Аудио кодек: Audio Coding 3
¤ Видео: 1024x576 (16:9), 23.976 fps, AVC ~2421 kbps avg, 0.171 bit/pixel
¤ Аудио: 48.00 kHz, Audio Coding 3, 6 ch ~ 448.00 kbps avg ≈ Rus
¤ Аудио: 48.00 kHz, Audio Coding 3, 6 ch ~ 448.00 kbps avg ≈ Eng

MediaInfo ▼TextОбщее
Уникальный идентификатор : 235370293688744389355694903608163681893 (0xB112AB6F10219B9596C84F7D6E87C665)
Полное имя : D:РаспоковкаСексуальная тварь.2000.BDRip-AVC.mkv
Формат : Matroska
Версия формата : Version 1
Размер файла : 2,05 Гбайт
Продолжительность : 1 ч. 28 м.
Общий поток : 3319 Кбит/сек
Дата кодирования : UTC 2012-07-31 15:11:31
Программа кодирования : mkvmerge v2.1.0 (Another Place To Fall) built on Aug 19 2007 13:40:07
Библиотека кодирования : libebml v0.7.7 + libmatroska v0.8.1

Видео
Идентификатор : 1
Формат : AVC
Формат/Информация : Advanced Video Codec
Профиль формата : [email protected]
Параметр CABAC формата : Да
Параметр ReFrames формата : 8 кадров
Идентификатор кодека : V_MPEG4/ISO/AVC
Продолжительность : 1 ч. 28 м.
Битрейт : 2421 Кбит/сек
Ширина : 1024 пикселя
Высота : 576 пикселей
Соотношение сторон : 16:9
Частота кадров : 23,976 кадра/сек
Цветовое пространство : YUV
Субдискретизация насыщенности : 4:2:0
Битовая глубина : 8 бит
Тип развёртки : Прогрессивная
Бит/(Пиксели*Кадры) : 0.171
Размер потока : 1,45 Гбайт (71%)
Библиотека кодирования : x264 core 115 r1937 aa21558
Настройки программы : cabac=1 / ref=8 / deblock=1:-2:-2 / analyse=0x3:0x113 / me=umh / subme=8 / psy=1 / psy_rd=1.00:0.10 / mixed_ref=0 / me_range=32 / chroma_me=1 / trellis=2 / 8x8dct=1 / cqm=0 / deadzone=21,11 / fast_pskip=1 / chroma_qp_offset=-3 / threads=6 / sliced_threads=0 / nr=0 / decimate=1 / interlaced=0 / bluray_compat=0 / constrained_intra=0 / bframes=8 / b_pyramid=2 / b_adapt=2 / b_bias=0 / direct=3 / weightb=1 / open_gop=0 / weightp=0 / keyint=250 / keyint_min=23 / scenecut=40 / intra_refresh=0 / rc_lookahead=30 / rc=2pass / mbtree=1 / bitrate=2421 / ratetol=1.0 / qcomp=0.60 / qpmin=15 / qpmax=47 / qpstep=3 / cplxblur=20.0 / qblur=0.5 / ip_ratio=1.40 / aq=1:1.10
Язык : English
Default : Да
Forced : Нет

Аудио #1
Идентификатор : 2
Формат : AC-3
Формат/Информация : Audio Coding 3
Расширение режима : CM (complete main)
Идентификатор кодека : A_AC3
Продолжительность : 1 ч. 28 м.
Вид битрейта : Постоянный
Битрейт : 448 Кбит/сек
Каналы : 6 каналов
Расположение каналов : Front: L C R, Side: L R, LFE
Частота : 48,0 КГц
Битовая глубина : 16 бит
Метод сжатия : С потерями
Размер потока : 283 Мбайт (13%)
Заголовок : Профессиональный многоголосый
Язык : Russian
Default : Да
Forced : Нет

Аудио #2
Идентификатор : 3
Формат : AC-3
Формат/Информация : Audio Coding 3
Расширение режима : CM (complete main)
Идентификатор кодека : A_AC3
Пр
e9cba329695feb50c25f2f7614044b534150ac76Сексуальная тварь / Sexy Beast (Джонатан Глейзер, драма, криминал, 2000) [BDRip-AVC, Пофессиональный (многоголосый, закадровый), +Оригинал] Сексуальная тварь / Sexy Beast (Джонатан Глейзер, драма, криминал, 2000) [BDRip-AVC, Пофессиональный (многоголосый, закадровый), +Оригинал] " />

Аплоадер: Админ, дата: 2-08-2012, 14:24, торрент скачан: 359 раз

Понравилась раздача? Посмотрите эти:
  • Мэрайа Мунди и шкатулка Мидаса / The Adventurer: The Curse of the Midas Box ...
  • Погнали! / Getaway (Кортни Соломон, боевик, криминал, 2013) [BDRip 1080p, П ...
  • Погнали! / Getaway (Кортни Соломон, боевик, криминал, 2013) [BDRip-AVC, Про ...
  • 11.6 / 11.6 (Филипп Годо, Драма, триллер, криминал, 2013) [BDRip-AVC, Профе ...
  • Мэрайа Мунди и шкатулка Мидаса / The Adventurer: The Curse of the Midas Box ...
  • Филадельфия / Philadelphia (Джонатан Демме, Драма, 1993) [BDRip-AVC, Профес ...
  • Башня / The Tower (Чи-хун Ким, драма, 2012) [BDRip-AVC, Любительский (двухг ...
  • Летучий отряд Скотланд-Ярда / The Sweeney (Ник Лав, Боевик, драма, криминал ...
  • Порочные игры / Stoker (Пак Чхан Ук, Триллер, драма, детектив, 2013) [BDRip ...
  • Порочные игры / Stoker (Пак Чхан Ук, Триллер, драма, детектив, 2013) [BDRip ...
  • Голливудский мусор / Garbage (Филипп Волкен, драма, комедия, 2013) [HDTVRip ...
  • Рикошет / Ricochet (Ник Гомез, драма, детектив, 2011) [BDRip-AVC, Профессио ...
  • Перелом / Fracture (Грегори Хоблит, Триллер, драма, криминал, детектив, 200 ...
  • АББА: фильм / ABBA: The Movie (документальный, драма, музыка, 1977) [BDRip- ...
  • Ангелы Чарли / Charlies Angels (МакДжи, Боевик, триллер, комедия, криминал, ...
  • Неуязвимая мишень / Naam yi boon sik (Бенни Чан, Боевик, криминал, 2007) [B ...
  • Подземелье драконов / Dungeons & Dragons (Кортни Соломон, Фэнтези, боевик, ...
  • Крученый мяч / Trouble with the Curve (Роберт Лоренц, Драма, 2012) [BDRip-A ...
  • Толстяк на ринге / Here Comes the Boom (Фрэнк Корачи, Боевик, комедия, 2012 ...
  • Суррогат / The Sessions (Бен Луин, Драма, 2012) [BDRip-AVC, Профессиональны ...
  • Драйв / Drive (Николас Виндинг Рёфн, боевик, триллер, драма, криминал, 2011 ...
  • Образец 47 / Marvel One-Shot: Item 47 (Луис Д’Эспозито, короткометражка, фа ...
  • Эд Вуд / Ed Wood (Тим Бёртон, драма, комедия, биография, 1994) [BDRip-AVC, ...
  • Павшая империя / Hirokin (Алехо Мо-Сан, фантастика, боевик, драма, приключе ...
  • Сексуальная тварь / Sexy Beast (Джонатан Глейзер, Криминал, 2000) [DVDRip, ...
  • Информация
    Посетители, находящиеся в группе Гости, не могут оставлять комментарии к данной публикации.