вход на сайт

Имя пользователя :
Пароль :

Восстановление пароля Регистрация
11:14 (Одиннадцать четырнадцать) / 11:14 (Elevenfourteen) (Грег Маркс, триллер, комедия, драма, 2003) [BDRip-AVC, Дублированный + Авторский (одноголосый, закадровый) + Оригинал]
Рейтинг:
(голосов: 1)



[img]{THEME}/images/logopost.png[/img]



11:14 (Одиннадцать четырнадцать) / 11:14 (Elevenfourteen)
«A dark comedy with killer timing»

Год выпуска: 2003 г.
Страна: США , Канада
Производство: MDP Worldwide, Firm Films, Media 8 Entertainment
Жанр: Триллер, комедия, драма

Режиссёр: Грег Маркс / Greg Marcks
В ролях: Генри Томас, Хилари Суэнк, Бен Фостер, Патрик Суэйзи, Блейк Херон, Барбара Херши, Кларк Грегг, Шон Хэтоси, Старк Сэндс, Колин Хэнкс, Рэйчел Ли Кук, Рик Гомез, Джейсон Сигел

Перевод:
• Профессиональный (полное дублирование)
• Авторский (одноголосый закадровый) [Д. Строев]
• Оригинал
Субтитры: Отсутствуют

Описание:
Миддлтон — очень миленькое провинциальное местечко. Одной очень странной ночью по шоссе на большой скорости движется автомобиль. За рулем изрядно подвыпивший парень говорит с кем-то по телефону. Громко орет радио. На часах 11:13. Вдруг внезапно на лобовое стекло падают чьи-то части тела. Время — 11:14… Добро пожаловать в Миддлтон!





Качество: BDRip-AVC (Исходник: Blu-Ray Remux 1080p)
Продолжительность: 01:25:42 час.

Формат: MKV
Видео кодек: x264
Аудио кодек: AC3
Видео: 1024x576 (16:9), 23,976 fps, Advanced Video Codec ([email protected]) ~3 500 kbps avg, 0.247 bit/pixel
Аудио #1: 48 kHz, AC3 Dolby Digital, 3/2 (L,C,R,l,r) + LFE ch, ~448 kbps avg | Дублированный
Аудио #2: 48 kHz, AC3 Dolby Digital, 3/2 (L,C,R,l,r) + LFE ch, ~448 kbps avg | Авторский одноголосый [Д. Строев] Отдельно
Аудио #3: 48 kHz, AC3 Dolby Digital, 3/2 (L,C,R,l,r) + LFE ch, ~448 kbps avg | Оригинал (Английский)

Дата премьеры (мир): 16 мая 2003
Дата премьеры (РФ): 9 сентября 2004, «West»

MediaInfo ▼Формат : Matroska
Размер файла : 2,63 Гбайт
Продолжительность : 1 ч. 25 м.
Общий поток : 4393 Кбит/сек
Дата кодирования : UTC 2011-11-12 07:33:09
Программа кодирования : mkvmerge v3.3.0 (Language) built on Mar 24 2010 14:59:24
Библиотека кодирования : libebml v0.8.0 + libmatroska v0.9.0

Видео
Идентификатор : 1
Формат : AVC
Формат/Информация : Advanced Video Codec
Профиль формата : [email protected]
Параметр CABAC формата : Да
Параметр ReFrames формата : 8 кадров
Идентификатор кодека : V_MPEG4/ISO/AVC
Продолжительность : 1 ч. 25 м.
Битрейт : 3500 Кбит/сек
Ширина : 1024 пикс.
Высота : 576 пикс.
Соотношение сторон : 16:9
Частота кадров : 23,976 кадр/сек
Цветовое пространство : YUV
Подвыборка цветности : 4:2:0
Битовая глубина : 8 бит
Тип развёртки : Прогрессивная
Бит/(Пиксели*Кадры) : 0.247
Размер потока : 2,04 Гбайт (78%)
Библиотека кодирования : x264 core 118 r2085 8a62835
Настройки программы : cabac=1 / ref=8 / deblock=1:-2:-2 / analyse=0x3:0x133 / me=umh / subme=11 / psy=1 / psy_rd=0.90:0.00 / mixed_ref=1 / me_range=48 / chroma_me=1 / trellis=2 / 8x8dct=1 / cqm=0 / deadzone=21,11 / fast_pskip=0 / chroma_qp_offset=-2 / threads=6 / sliced_threads=0 / nr=0 / decimate=1 / interlaced=0 / bluray_compat=0 / constrained_intra=0 / bframes=6 / b_pyramid=2 / b_adapt=2 / b_bias=0 / direct=3 / weightb=1 / open_gop=0 / weightp=2 / keyint=250 / keyint_min=23 / scenecut=40 / intra_refresh=0 / rc=2pass / mbtree=0 / bitrate=3500 / ratetol=1.0 / qcomp=0.60 / qpmin=10 / qpmax=51 / qpstep=4 / cplxblur=20.0 / qblur=0.5 / ip_ratio=1.40 / pb_ratio=1.30 / aq=1:1.00
Язык : English

Аудио #1
Идентификатор : 2
Формат : AC-3
Формат/Информация : Audio Coding 3
Расширение режима : CM (complete main)
Идентификатор кодека : A_AC3
Продолжительность : 1 ч. 25 м.
Вид битрейта : Постоянный
Битрейт : 448 Кбит/сек
Каналы : 6 каналов
Расположение каналов : Front: L C R, Side: L R, LFE
Частота : 48,0 КГц
Битовая глубина : 16 бит
Метод сжатия : С потерями
Размер потока : 275 Мбайт (10%)
Заголовок : Дубляж
Язык : Russian

Аудио #2
Идентификатор : 3
Формат : AC-3
Формат/Информация : Audio Coding 3
Расширение режима : CM (complete main)
Идентификатор кодека : A_AC3
Продолжительность : 1 ч. 25 м.
Вид битрейта : Постоянный
Битрейт : 448 Кбит/сек
Каналы : 6 каналов
Р
754a1831a1a935a4639ad81d1d20d4f594e8153411:14 (Одиннадцать четырнадцать) / 11:14 (Elevenfourteen) (Грег Маркс, триллер, комедия, драма, 2003) [BDRip-AVC, Дублированный + Авторский (одноголосый, закадровый) + Оригинал] 11:14 (Одиннадцать четырнадцать) / 11:14 (Elevenfourteen) (Грег Маркс, триллер, комедия, драма, 2003) [BDRip-AVC, Дублированный + Авторский (одноголосый, закадровый) + Оригинал] " />

Аплоадер: Админ, дата: 20-07-2012, 23:26, торрент скачан: 359 раз

Понравилась раздача? Посмотрите эти:
  • Тело / El cuerpo (Ориол Паоло, триллер, 2012) [BDRip-AVC, Авторский (одного ...
  • Византия / Byzantium (Нил Джордан, Фэнтези, триллер, драма, 2012) [BDRip 10 ...
  • Мальчишник: Часть III / The Hangover Part III (Тодд Филлипс, комедия, 2013) ...
  • Узник / One in the Chamber (Уильям Кауфман, боевик, триллер, криминал, 2012 ...
  • Голливудский мусор / Garbage (Филипп Волкен, драма, комедия, 2013) [HDTVRip ...
  • Перелом / Fracture (Грегори Хоблит, Триллер, драма, криминал, детектив, 200 ...
  • Ворон / The Raven (Джеймс МакТиг, Триллер, детектив, 2012) [BDRip 1080p, Ду ...
  • Призраки / Ghosted (Крэйг Вивейрос, Триллер, драма, 2011) [BDRip-AVC, Профе ...
  • Толстяк на ринге / Here Comes the Boom (Фрэнк Корачи, Боевик, комедия, 2012 ...
  • Суррогат / The Sessions (Бен Луин, Драма, 2012) [BDRip-AVC, Профессиональны ...
  • 11:14 (Одиннадцать четырнадцать) / ElevenFourteen(Грег МэрксТриллер, комеди ...
  • Главное - не бояться! / A Little Bit of Heaven (Николь Кэссел / Nicole Kass ...
  • Иностранный легион / La cité (Ким Нгуйен / Kim Nguyen, драма, 2010) [DVDRip ...
  • Подарок / Echelon Conspiracy (Грег Маркс, боевик, триллер, криминал, детект ...
  • Эд Вуд / Ed Wood (Тим Бёртон, драма, комедия, биография, 1994) [BDRip-AVC, ...
  • Резня /Carnage (Роман Полански, драма, комедия, 2011) [BDRip 1080p, Дублиро ...
  • 11:14 / Одиннадцать четырнадцать / ElevenFourteen (Грег Мэркс, Драма, комед ...
  • 11:14 (Одиннадцать четырнадцать) / ElevenFourteen (Грег Мэркс / Greg Marcks ...
  • Одиннадцать четырнадцать / 11:14 (Грег Мэркс, триллер, комедия, драма, крим ...
  • 11:14 (Одиннадцать четырнадцать) / ElevenFourteen (Грег Мэркс, триллер, ком ...
  • Информация
    Посетители, находящиеся в группе Гости, не могут оставлять комментарии к данной публикации.