вход на сайт

Имя пользователя :
Пароль :

Восстановление пароля Регистрация
Засну, когда умру / Ill Sleep When Im Dead (Майк Ходжис, триллер, драма, криминал, детектив, 2003) [HDTVRip, Профессиональный (двухголосый, закадровый) + Sub]
Рейтинг:
(голосов: 1)



[img]{THEME}/images/logopost.png[/img]



Засну, когда умру | Ill Sleep When Im Dead
«For three long years, Will Graham led a quiet life. Things are about to change.»

Год выпуска: 2003
Страна: США Великобритания
Производство: Mosaic Film Group
Жанр: триллер, драма, криминал, детектив

Режиссёр: Майк Ходжис / Mike Hodges
В ролях: Клайв Оуэн (Will), Шарлотта Рэмплинг (Helen), Джонатан Риз Мейерс (Davey), Малкольм МакДауэлл (Boad), Джэми Формен (Mickser), Кен Стотт (Turner), Сильвия Симс (Mrs. Bartz), Александр Мортон (Victor), Джон Сурман (Pathologist), Пол Мохан (Coroner), Damian Dibben (David Myers), Эмбер Бэтти (Sheridan)

Перевод: Профессиональный (двухголосый, закадровый) - Elrom
Субтитры: Английские (*.srt) - отдельно

Описание: История о мести и правосудии, немного о любви, но большей частью о том, как выжить в этом жестком мире. Фильм начинается с истории обычного лондонского паренька, Дэйва Грэма. Дэйв живет мелкими кражами и продажей наркоты. Он успешно совмещает работу и удовольствие, посещая светские вечеринки, впаривая кокаин богатым дамочкам и конечно не отказывая себе в удовольствии продолжить веселье уже дома у этих самых дамочек. Но не всем нравится поведение заносчивого молодого Грэма, и наутро после одной из таких вечеринок его ловят и насилуют. Шок после происшедшего ломает психику Дэйва и он кончает жизнь самоубийством, перерезав себе горло в холодной ванне.Дата премьеры (мир): 27 марта 2003
Качество: HDTVRip | исх. Ill.Sleep.When.Im.Dead.2003.720p.HDTV-Grim
Продолжительность: 01:43:09

Релиз от: &
Автор рипа: encoderrr

Формат: AVI
Видео кодек: XviD build 65
Аудио кодек: MPEG Layer 3
Видео: 656x368 (1.78:1), 23.976 fps, XviD build 65 ~872 kbps avg, 0.15 bit/pixel
Аудио: 48 kHz, MPEG Layer 3, 2 ch, ~128.00 kbps avg | Rus - Профессиональный (двухголосый, закадровый) - Elrom

MediaInfo ▼General
Complete name : D:ФильмыAll FilmsIll.Sleep.When.Im.Dead.2003.HDTVRip.DVO.by.encoderrr Ill.Sleep.When.Im.Dead.2003.HDTVRip.DVO.by.encoderrr.avi
Format : AVI
Format/Info : Audio Video Interleave
File size : 745 MiB
Duration : 1h 43mn
Overall bit rate : 1 010 Kbps
Writing application : VirtualDubMod 1.5.10.3 | www.virtualdub-fr.org || (build 2550/release)
Writing library : VirtualDubMod build 2550/release
Video
ID : 0
Format : MPEG-4 Visual
Format profile : Advanced [email protected]
Format settings, BVOP : 1
Format settings, QPel : No
Format settings, GMC : No warppoints
Format settings, Matrix : Custom
Codec ID : XVID
Codec ID/Hint : XviD
Duration : 1h 43mn
Bit rate : 873 Kbps
Width : 656 pixels
Height : 368 pixels
Display aspect ratio : 16:9
Frame rate : 23.976 fps
Color space : YUV
Chroma subsampling : 4:2:0
Bit depth : 8 bits
Scan type : Progressive
Compression mode : Lossy
Bits/(Pixel*Frame) : 0.151
Stream size : 644 MiB (86%)
Writing library : XviD 65
Audio
ID : 1
Format : MPEG Audio
Format version : Version 1
Format profile : Layer 3
Codec ID : 55
Codec ID/Hint : MP3
Duration : 1h 43mn
Bit rate mode : Constant
Bit rate : 128 Kbps
Channel(s) : 2 channels
Sampling rate : 48.0 KHz
Compression mode : Lossy
Stream size : 94.3 MiB (13%)
Alignment : Aligned on interleaves
Interleave, duration : 42 ms (1.00 video frame)
Interleave, preload duration : 504 ms
Writing library : L3.99r
Encoding settings : -m s -V 4 -q 0 -lowpass 17 -b 128





c1127fc35e106892b487bb64a82a712824112793Засну, когда умру / Ill Sleep When Im Dead (Майк Ходжис, триллер, драма, криминал, детектив, 2003) [HDTVRip, Профессиональный (двухголосый, закадровый) + Sub] Засну, когда умру / Ill Sleep When Im Dead (Майк Ходжис, триллер, драма, криминал, детектив, 2003) [HDTVRip, Профессиональный (двухголосый, закадровый) + Sub] " />

Аплоадер: Админ, дата: 12-07-2012, 14:39, торрент скачан: 359 раз

Понравилась раздача? Посмотрите эти:
  • Погнали! / Getaway (Кортни Соломон, Боевик,Криминал, 2013) [HDRip, Професси ...
  • Вирус / Flu (Ким Сон Су, Драма, 2013) [HDTVRip, Любительский (двухголосый з ...
  • Хладнокровная / Cold Blooded (Джейсон Лапейр, Триллер, криминал, 2012) [WEB ...
  • Финал / The Final (Джои Стюарт, ужасы, триллер, драма, 2010) [HDRip, Профес ...
  • Мертвая зона / The Dead Zone (Дэвид Кроненберг, Ужасы, Триллер, Драма, Дете ...
  • Решала (Роман Асхаев, Драма,Криминал, 2012) [WEB-DLRip, Не требуется]
  • Берлинское дело / The Berlin File (Рю Сын Ван, Боевик, триллер, драма, 2013 ...
  • Колония / The Colony (Джефф Ренфро, фантастика, боевик, триллер, 2013) [DVD ...
  • Город воров / The Town (Бен Аффлек, триллер, драма, криминал, 2010) [HDRip, ...
  • Игра смерти / Game of death (Роберт Клауз, Саммо Хунг Кам-Бо, Брюс Ли, боев ...
  • Псы войны / The Dogs of War (Джон Ирвин, боевик, драма, приключения, военны ...
  • Нежность / Tenderness (Джон Полсон, Триллер, драма, криминал, 2009) [HDRip, ...
  • Без всего / Sin ella (Джордже Колон, Мелодрама, 2010) [HDTVRip , Профессион ...
  • Акулы пера / Soloalbum (Грегор Шнитцлер, мелодрама, комедия, 2003) [BDRip, ...
  • Засну, когда умру / Ill Sleep When Im Dead (Майк Ходжис, триллер, драма, кр ...
  • Николас Никлби / Nicholas Nickleby (Дуглас МакГрат, Драма, мелодрама, прикл ...
  • Искажение / Skew (Сейв Челенз, ужасы, триллер, 2011) [HDRip, Профессиональн ...
  • Ничего, кроме правды / Nothing But the Truth (Род Лури, триллер, драма, 200 ...
  • Рука-убийца / Idle Hands (Родмен Флендер,ужасы, триллер, комедия, 1999) [HD ...
  • Крузо / Crusoe (Калеб Дешанель, Драма, 1988) [HDTVRip, Профессиональный (дв ...
  • Информация
    Посетители, находящиеся в группе Гости, не могут оставлять комментарии к данной публикации.