вход на сайт

Имя пользователя :
Пароль :

Восстановление пароля Регистрация
Игра на выживание / Gone (Эйтор Далия, триллер, драма, 2012) [BDRip-AVC, Дублированный + Sub] [US Transfer]
Рейтинг:
(голосов: 1)



[img]{THEME}/images/logopost.png[/img]



Игра на выживание / Gone
«Никто ей не верит. Ничто её не остановит.»

Год выпуска: 2012
Страна: США
Производство: Lakeshore Entertainment, Sidney Kimmel Entertainment
Жанр: триллер, драма

Режиссёр: Эйтор Далия
В ролях: Аманда Сайфред, Дэниел Сунджата, Дженнифер Карпентер, Себастиан Стэн, Уэс Бентли, Ник Сирси, Сократис Отто, Эмили Уикершем, Джоэль Мур, Кэтрин Менниг

Перевод: Дублированный
Субтитры: английские

Описание: Джилл однажды приходит домой и не находит сестру. Джилл уверена, что серийный убийца, который похищал ее пару лет назад, вернулся, чтобы довести начатое до логического завершения. А начнет он с ее сестры. Полиция не воспринимает ее всерьез, говоря, что девушка объявится, когда нагуляется. Единственный выход — вступить в схватку с маньяком и разобраться с этим раз и навсегда.



Качество: BDRip-AVC
Продолжительность: 01:34:52 час.

Формат: MKV
Видео кодек: AVC
Аудио кодек: AC3
Видео: 1056x440 (2.40:1), 23.976 fps, AVC ~1 748 Kbps, 0.157 bit/pix
Аудио: 48 kHz, AC3, 3/2 (L,C,R,l,r) + LFE ch, ~448.00 kbps avg | Russian (DUB)

Премьера (мир): 21 февраля 2012
Премьера (РФ): 23 февраля 2012, «UPI»
MediaInfo ▼General
Unique ID : 170320722395700060032615243086689299229 (0x802293F3F3955ADBB7C3FCAFAEA16B1D)
Complete name : I:...Igra.Na.Vyzhivanie.2012.RUS.BDRip-AVC.AC3.-HQ-ViDEO.mkv
Format : Matroska
Format version : Version 2
File size : 1.46 GiB
Duration : 1h 34mn
Overall bit rate : 2 198 Kbps
Movie name : Gone (2012) - HQ-ViDEO
Encoded date : UTC 2012-05-14 03:50:39
Writing application : mkvmerge v5.5.0 (Healer) built on Apr 6 2012 21:43:24
Writing library : libebml v1.2.3 + libmatroska v1.3.0
Video
ID : 1
Format : AVC
Format/Info : Advanced Video Codec
Format profile : [email protected]
Format settings, CABAC : Yes
Format settings, ReFrames : 14 frames
Codec ID : V_MPEG4/ISO/AVC
Duration : 1h 34mn
Bit rate : 1 748 Kbps
Width : 1 056 pixels
Height : 440 pixels
Display aspect ratio : 2.40:1
Frame rate : 23.976 fps
Color space : YUV
Chroma subsampling : 4:2:0
Bit depth : 8 bits
Scan type : Progressive
Bits/(Pixel*Frame) : 0.157
Stream size : 1.13 GiB (78%)
Title : Vaippp
Writing library : x264 core 124 r2197 69a0443
Encoding settings : cabac=1 / ref=14 / deblock=1:-2:-1 / analyse=0x3:0x133 / me=umh / subme=10 / psy=1 / psy_rd=1.05:0.05 / mixed_ref=1 / me_range=24 / chroma_me=1 / trellis=2 / 8x8dct=1 / cqm=0 / deadzone=21,11 / fast_pskip=0 / chroma_qp_offset=-3 / threads=12 / sliced_threads=0 / nr=0 / decimate=0 / interlaced=0 / bluray_compat=0 / constrained_intra=0 / bframes=7 / b_pyramid=2 / b_adapt=2 / b_bias=0 / direct=3 / weightb=1 / open_gop=0 / weightp=2 / keyint=240 / keyint_min=22 / scenecut=40 / intra_refresh=0 / rc_lookahead=60 / rc=2pass / mbtree=0 / bitrate=1748 / ratetol=1.0 / qcomp=0.65 / qpmin=0 / qpmax=69 / qpstep=4 / cplxblur=20.0 / qblur=0.5 / vbv_maxrate=40000 / vbv_bufsize=30000 / nal_hrd=none / ip_ratio=1.40 / pb_ratio=1.30 / aq=1:1.00 / zones=128769,136487,q=35
Language : English
Default : Yes
Forced : No
Color primaries : BT.709-5, BT.1361, IEC 61966-2-4, SMPTE RP177
Transfer characteristics : BT.709-5, BT.1361
Matrix coefficients : BT.709-5, BT.1361, IEC 61966-2-4 709, SMPTE RP177
Audio
ID : 2
Format : AC-3
Format/Info : Audio Coding 3
Mode extension : CM (complete main)
Format settings, Endianness : Big
Codec ID : A_AC3
Duration : 1h 34mn
Bit rate mode : Constant
Bit rate : 448 Kbps
Channel(s) : 6 channels
Channel positions : Front: L C R, Side: L R, LFE
Sampling rate : 48.0 KHz
Bit depth : 16 bits
Compression mode : Lossy
Stream size : 304 MiB (20%)
Title : DUB @ Blu-Ray Rus
Language : Russian
Default : Yes
Forced : Yes
Text #1
ID : 3
Format : UTF-8
Codec ID : S_TEXT/UTF8
Codec ID/Info : UTF-8 Plain Text
Language : English
Default : No
Forced : No
Text #2
ID : 4
Format : UTF-8
Codec ID : S_TEXT/UTF8
Codec ID/Info : UTF-8 Plain Text
Title : SDH
Language : English
Default : No
Forced : No
Menu
00:00:00.000 : en:00:00:00.000
00:04:43.992 : en
0b54e26a9e7244ebea1f59bce4277208f88d8785Игра на выживание / Gone (Эйтор Далия, триллер, драма, 2012) [BDRip-AVC, Дублированный + Sub] [US Transfer] Игра на выживание / Gone (Эйтор Далия, триллер, драма, 2012) [BDRip-AVC, Дублированный + Sub] [US Transfer] " />

Аплоадер: Админ, дата: 2-06-2012, 14:32, торрент скачан: 359 раз

Понравилась раздача? Посмотрите эти:
  • Игра на выживание / Gone (Эйтор Далия, Триллер, драма, детектив, 2012) [BDR ...
  • Шерлок Холмс: Игра теней / Sherlock Holmes: A Game of Shadows (Гай Ричи, бо ...
  • Кориолан / Coriolanus (Рэйф Файнс, триллер, драма, 2011) [BDRip-AVC, Дубли ...
  • Игра на выживание / Gone (Эйтор Далия, триллер, драма, 2012) [BDRip-AVC, Ду ...
  • Игра на выживание / Gone (Эйтор Далия, триллер, драма, 2012) [BDRip-AVC, Ду ...
  • Джон Картер / John Carter (Эндрю Стэнтон, Фантастика, 2012) [BDRip-AVC, Дуб ...
  • Проект X: Дорвались / Project X (Нима Нуризаде, комедия, 2012) [BDRip-AVC, ...
  • Игра на выживание / Gone (Эйтор Далия, триллер, драма, 2012) [BDRip 720p, П ...
  • Игра на выживание / Gone (Эйтор Далия, триллер, драма, 2012) [BDRip 1080p, ...
  • Игра на выживание / Gone (Эйтор Далия, триллер, драма, 2012) [BDRip 1080p, ...
  • Одержимая / The Devil Inside (Уильям Брент Белл, ужасы, триллер, 2012) [BDR ...
  • Ю-571 / U-571 (Джонатан Мостоу, Боевик, 2000) [BDRip - AVC, Дубляж + Субтит ...
  • Футбольный клуб / Чемпионат Европы 2012 / НТВ+ [Футбол, 08.06.2012, HDTVRip ...
  • Чемпионат Европы 2012 / Группа C / 1-й тур / Ирландия — Хорватия / Спорт 1 ...
  • Игра на выживание / Gone (Эйтор Далия, триллер, драма, 2012) [DVD5, Професс ...
  • Игра на выживание / Gone (Эйтор Далия, триллер, драма, 2012) [HDRip, Дублир ...
  • Игра на выживание / Gone (Эйтор Далия, триллер, драма, 2012г) [320x240] [HD ...
  • Игра на выживание / Gone (Эйтор Далия, триллер, драма, 2012) [BDRip, Дубляж ...
  • The Dream Team - NBA TV Documentary [Баскетбол,13.06.2012, HDTVRip/720p, MP ...
  • Церемония открытия летних Олимпийских игр 2012 в Лондоне. НТВ + [27.08.2012 ...
  • Информация
    Посетители, находящиеся в группе Гости, не могут оставлять комментарии к данной публикации.