вход на сайт

Имя пользователя :
Пароль :

Восстановление пароля Регистрация
На грани / Man on a Ledge (Асгер Лет, триллер, криминал, 2012) [BDRip-AVC, Профессиональный (полное дублирование) + Оригинал + субтитры]
Рейтинг:
(голосов: 1)



[img]{THEME}/images/logopost.png[/img]



На грани / Man on a Ledge
«Только невиновного можно загнать так высоко»

Год выпуска: 2012 г.
Страна: США
Производство: Summit Entertainment, Di Bonaventura Picture
Жанр: Триллер, криминал

Режиссёр: Асгер Лет / Asger Leth
В ролях: Сэм Уортингтон, Элизабет Бэнкс, Джейми Белл, Энтони Маки, Генезис Родригез, Эд Харрис, Эдвард Бёрнс, Мэнди Гонзалес, Барбара Марино, Дж. Смит-Камерон

Перевод: Профессиональный (полное дублирование) + Оригинал
Субтитры: Русские (voronine), английские

Описание:
Экс-полицейский, обвиняемый в преступлении, которого он якобы не совершал, собирается покончить жизнь самоубийством, сбросившись с крыши одного из отелей на Манхэттене. С ним в переговоры вступает психолог нью-йоркской полиции. Напряжение нарастает с каждой минутой, на площадь стягиваются наряды спецподразделений, толпа оглашается женскими криками. А в это время на месте происшествия, прямо под носом у полиции, совершается грандиозное ограбление века: неизвестные похищают уникальные бриллианты…





Качество: BDRip-AVC (Исходник: BD-Remux 1080р)
Продолжительность: 01:42:23 час.

Формат: MKV
Видео кодек: x264
Аудио кодек: AC3
Видео: 1152x480 (2.40:1), 23,976 fps, Advanced Video Codec ([email protected]) ~3 848 kbps avg, 0.290 bit/pixel
Аудио #1: 48 kHz, AC3 Dolby Digital, 3/2 (L,C,R,l,r) + LFE ch, ~384 kbps avg | Дубляж
Аудио #2: 48 kHz, AC3 Dolby Digital, 3/2 (L,C,R,l,r) + LFE ch, ~448 kbps avg | Оригинал (Английский)

Дата премьеры (мир): 26 января 2012
Дата премьеры (РФ): 2 февраля 2012, «Парадиз»

MediaInfo ▼TextFormat : Matroska
Format version : Version 2
File size : 3.42 GiB
Duration : 1h 42mn
Overall bit rate : 4 775 Kbps
Movie name : Man.on.a.Ledge.2012.BDRip.x264.DD5.1.Rus.Eng-E76
Encoded date : UTC 2012-05-15 20:17:20
Writing application : mkvmerge v5.2.1 (A Far Off Place) built on Jan 2 2012 23:21:10
Writing library : libebml v1.2.3 + libmatroska v1.3.0

Video
ID : 1
Format : AVC
Format/Info : Advanced Video Codec
Format profile : [email protected]
Format settings, CABAC : Yes
Format settings, ReFrames : 12 frames
Codec ID : V_MPEG4/ISO/AVC
Duration : 1h 42mn
Bit rate : 3 848 Kbps
Width : 1 152 pixels
Height : 480 pixels
Display aspect ratio : 2.40:1
Frame rate : 23.976 fps
Color space : YUV
Chroma subsampling : 4:2:0
Bit depth : 8 bits
Scan type : Progressive
Bits/(Pixel*Frame) : 0.290
Stream size : 2.75 GiB (81%)
Title : Encode by Enclave76
Writing library : x264 core 124 r2197kMod 69a0443
Encoding settings : cabac=1 / ref=12 / deblock=1:-3:-3 / analyse=0x3:0x113 / me=umh / subme=11 / psy=1 / fade_compensate=0.90 / psy_rd=1.00:0.15 / mixed_ref=1 / me_range=64 / chroma_me=1 / trellis=2 / 8x8dct=1 / cqm=0 / deadzone=21,11 / fast_pskip=1 / chroma_qp_offset=-3 / threads=6 / sliced_threads=0 / nr=0 / decimate=1 / interlaced=0 / bluray_compat=0 / constrained_intra=0 / bframes=16 / b_pyramid=2 / b_adapt=2 / b_bias=0 / direct=1 / weightb=1 / open_gop=0 / weightp=2 / keyint=240 / keyint_min=23 / scenecut=40 / intra_refresh=0 / rc_lookahead=120 / rc=crf / mbtree=1 / crf=19.7000 / qcomp=0.70 / qpmin=0 / qpmax=69 / qpstep=4 / vbv_maxrate=50000 / vbv_bufsize=62500 / crf_max=0.0 / nal_hrd=none / ip_ratio=1.10 / aq=3:1.10 / zones=139895,147287,q=35
Language : English
Matrix coefficients : BT.709-5, BT.1361, IEC 61966-2-4 709, SMPTE RP177

Audio #1
ID : 2
Format : AC-3
Format/Info : Audio Coding 3
Mode extension : CM (complete main)
Codec ID : A_AC3
Duration : 1h 42mn
Bit rate mode : Constant
Bit rate : 384 Kbps
Channel(s) : 6 channels
Channel positions : Front: L C R, Side: L R, LFE
Sampling rate : 48.0 KHz
Bit depth : 16 bits
Compression mode : Lossy
Stream size : 281 MiB (8%)
Title : Dub
Language : Russian

Audio #2
ID : 3
Format : AC-3
Format/Info : Audio Coding 3
Mode extension : CM (complete main)
Codec ID : A_AC3
Duration : 1h 42mn
Bit rate mode : Constant
Bit rate : 448 Kbps
Channel(s) : 6 channels
Channel positions : Front: L C R, Side: L R, LFE
Sampling rate : 48.0 KHz
Bit depth : 16 bits
efb5d4be6106fe09628f0c888b979cf5ef03f16cНа грани / Man on a Ledge (Асгер Лет, триллер, криминал, 2012) [BDRip-AVC, Профессиональный (полное дублирование) + Оригинал + субтитры] На грани / Man on a Ledge (Асгер Лет, триллер, криминал, 2012) [BDRip-AVC, Профессиональный (полное дублирование) + Оригинал + субтитры] " />

Аплоадер: Админ, дата: 19-05-2012, 20:53, торрент скачан: 359 раз

Понравилась раздача? Посмотрите эти:
  • Сыщик / Sleuth (Кеннет Брэна, Триллер, драма, детектив, 2007) [BDRip-AVC, П ...
  • Соучастник / Collateral (Майкл Манн, Триллер, драма, криминал, 2004) [BDRip ...
  • Аноним / Anonymous (Роланд Эммерих, триллер, драма, 2011) [BDRip-AVC, Профе ...
  • Мартовские иды / The Ides of March (Джордж Клуни / George Clooney, драма, 2 ...
  • На грани / Man on a Ledge (Асгер Лет / Asger Leth, триллер, криминал, 2012) ...
  • На грани / Man on a Ledge (Асгер Лет / Asger Leth, триллер, криминал, 2012) ...
  • На грани / Man on a Ledge (Асгер Лет / Asger Leth, триллер, криминал, 2012) ...
  • Код доступа «Кейптаун» / Safe House (Дэниэл Эспиноза, боевик, триллер, крим ...
  • Коллекционер 2 / The Collection (Маркус Данстэн, ужасы, боевик, триллер , 2 ...
  • На грани / Man on a Ledge (Асгер Лет, триллер, 2012) [BDRip 720p, Дублирова ...
  • На грани / Man on a Ledge (Асгер Лет, триллер, криминал, 2012) [BDRip 1080p ...
  • На грани / Man on a Ledge (Асгер Лет, Триллер, криминал, 2012) [BDRip-AVC, ...
  • На грани / Man on a Ledge (Асгер Лет, триллер, криминал, 2012) [DVD9, Полно ...
  • На грани / Man on a Ledge (Асгер Лет, триллер, криминал, 2012г) [320x240] [ ...
  • На грани / Man on a Ledge (Асгер Лет, триллер, криминал, 2012) [HDRip, Дубл ...
  • На грани / Man on a Ledge (Асгер Лет, триллер, криминал, 2012) [HDRip, Дубл ...
  • На грани / Man on a Ledge (Асгер Лет, триллер, криминал, 2012) [BD-Remux 10 ...
  • На грани / Man on a Ledge (Асгер Лет, триллер, криминал, 2012) [Blu-Ray Dis ...
  • На грани / Man on a Ledge (Асгер Лет, Триллер, криминал, 2012) [BDRip, Авто ...
  • На грани / Man on a Ledge (Асгер Лет, Триллер, криминал, 2012) [BDRip, Авто ...
  • Информация
    Посетители, находящиеся в группе Гости, не могут оставлять комментарии к данной публикации.