вход на сайт

Имя пользователя :
Пароль :

Восстановление пароля Регистрация
Кориолан / Coriolanus (Рэйф Файнс, триллер, драма, 2011) [BDRip-AVC, Дублированный + Sub (rus, eng)]
Рейтинг:
(голосов: 1)



[img]{THEME}/images/logopost.png[/img]



Кориолан / Coriolanus
«Даже зверь понимает кто ему друг»

Год выпуска: 2011
Страна: Великобритания
Производство: Artemis Films, Atlantic Swiss Productions
Жанр: триллер, драма

Режиссёр: Рэйф Файнс
В ролях: Рэйф Файнс, Джерард Батлер, Ванесса Редгрейв, Брайан Кокс, Джессика Честейн, Джеймс Несбитт, Лубна Азабаль, Ашраф Бархом, Зоран Чича, Милош Дабич

Перевод: Дублированный
Субтитры: Русские, Английские

Описание: Сюжет картины основан на легенде о полководце Гнее Марцие Кориолане, жившем в Риме в пятом веке до нашей эры. Действие картины из Древнего Рима перенесено в наши дни, и вместо мечей главные герои «Кориолана» сжимают в руках автоматы.





Дата премьеры (мир): 14 февраля 2011
Дата премьеры (РФ): 26 января 2012, «Top Film Distribution»

Качество: BDRip-AVC ► Сэмпл
Продолжительность: 02:03:19

Формат: MKV
Видео кодек: X.264
Аудио кодек: AC3
Видео: 1 022x434 (2.35:1), 23.976 fps, ~2 149 Kbps , 0.202 bit/pixel
Аудио: 48.0 KHz, 6 channels (Front: L C R, Side: L R, LFE), 384.00 kbps avg
MediaInfo ▼TextFormat : Matroska
Format version : Version 2
File size : 2.18 GiB
Duration : 2h 3mn
Overall bit rate : 2 533 Kbps
Movie name : Coriolanus (2011) - HQ-ViDEO
Encoded date : UTC 2012-05-09 03:21:07
Writing application : mkvmerge v5.5.0 (Healer) built on Apr 6 2012 21:43:24
Writing library : libebml v1.2.3 + libmatroska v1.3.0

Video
ID : 1
Format : AVC
Format/Info : Advanced Video Codec
Format profile : [email protected]
Format settings, CABAC : Yes
Format settings, ReFrames : 10 frames
Codec ID : V_MPEG4/ISO/AVC
Duration : 2h 3mn
Bit rate : 2 149 Kbps
Width : 1 022 pixels
Height : 434 pixels
Display aspect ratio : 2.35:1
Frame rate : 23.976 fps
Color space : YUV
Chroma subsampling : 4:2:0
Bit depth : 8 bits
Scan type : Progressive
Bits/(Pixel*Frame) : 0.202
Stream size : 1.81 GiB (83%)
Title : Vaippp
Writing library : x264 core 124 r2197 69a0443
Encoding settings : cabac=1 / ref=10 / deblock=1:-2:-1 / analyse=0x3:0x133 / me=umh / subme=10 / psy=1 / psy_rd=0.95:0.07 / mixed_ref=1 / me_range=48 / chroma_me=1 / trellis=2 / 8x8dct=1 / cqm=0 / deadzone=21,11 / fast_pskip=0 / chroma_qp_offset=-3 / threads=12 / sliced_threads=0 / nr=0 / decimate=0 / interlaced=0 / bluray_compat=0 / constrained_intra=0 / bframes=12 / b_pyramid=2 / b_adapt=2 / b_bias=0 / direct=3 / weightb=1 / open_gop=0 / weightp=2 / keyint=240 / keyint_min=22 / scenecut=40 / intra_refresh=0 / rc_lookahead=60 / rc=2pass / mbtree=0 / bitrate=2149 / ratetol=1.0 / qcomp=0.80 / qpmin=0 / qpmax=69 / qpstep=4 / cplxblur=20.0 / qblur=0.5 / vbv_maxrate=40000 / vbv_bufsize=30000 / nal_hrd=none / ip_ratio=1.40 / pb_ratio=1.30 / aq=1:0.70 / zones=169272,177272,q=35
Language : English
Default : Yes
Forced : No
Color primaries : BT.709-5, BT.1361, IEC 61966-2-4, SMPTE RP177
Transfer characteristics : BT.709-5, BT.1361
Matrix coefficients : BT.709-5, BT.1361, IEC 61966-2-4 709, SMPTE RP177

Audio
ID : 2
Format : AC-3
Format/Info : Audio Coding 3
Mode extension : CM (complete main)
Codec ID : A_AC3
Duration : 2h 3mn
Bit rate mode : Constant
Bit rate : 384 Kbps
Channel(s) : 6 channels
Channel positions : Front: L C R, Side: L R, LFE
Sampling rate : 48.0 KHz
Bit depth : 16 bits
Compression mode : Lossy
Stream size : 339 MiB (15%)
Title : DUB @ R5
Language : Russian
Default : Yes
Forced : Yes

Text #1
ID : 3
Format : UTF-8
Codec ID : S_TEXT/UTF8
Codec ID/Info : UTF-8 Plain Text
Title : voronine
Language : Russian
Default : No
Forced : No

Text #2
ID : 4
Format : UTF-8
Codec ID : S_TEXT/UTF8
Codec ID/Info : UTF-8 Plain Text
Title : SDH
Language : English
Default : No
Forced : No

Menu
00:00:00.000 : en:00:00:00.000
00:07:53.348 : en:00:07:53.348
00:13:00.405 : en:00:13:00.405
00:17:42.103 : en:00:17:42.103
00:27:38.156 : en:00:27:38.156
00:34:11.925 : en:00:34:11.925
00:42:25.460 : en:00:42:25.460
00:49:51.363 : en:00:49:51.363
00:54:39.818 : en:00:54:39.818
01:01:25.432 : en:01:0
b42717b4f06e30b79a221a3d80b229ee6907f335Кориолан / Coriolanus (Рэйф Файнс, триллер, драма, 2011) [BDRip-AVC, Дублированный + Sub (rus, eng)] Кориолан / Coriolanus (Рэйф Файнс, триллер, драма, 2011) [BDRip-AVC, Дублированный + Sub (rus, eng)] " />

Аплоадер: Админ, дата: 10-05-2012, 22:39, торрент скачан: 359 раз

Понравилась раздача? Посмотрите эти:
  • 007: Координаты «Скайфолл» / Skyfall (Сэм Мендес, Боевик, триллер, криминал ...
  • Аноним / Anonymous (Роланд Эммерих, триллер, драма, 2011) [BDRip-AVC, Профе ...
  • Мартовские иды / The Ides of March (Джордж Клуни / George Clooney, драма, 2 ...
  • Шерлок Холмс: Игра теней / Sherlock Holmes: A Game of Shadows (Гай Ричи, бо ...
  • Опасный метод / A Dangerous Method (Дэвид Кроненберг, триллер, драма, биогр ...
  • Игра на выживание / Gone (Эйтор Далия, триллер, драма, 2012) [BDRip-AVC, Ду ...
  • Проект X: Дорвались / Project X (Нима Нуризаде, комедия, 2012) [BDRip-AVC, ...
  • Неизвестный / Unknown (Жауме Серра / Jaume Collet-Serra, триллер, драма, де ...
  • Кориолан / Coriolanus (Рэйф Файнс, Триллер, драма, военный, 2011) [BDRip-AV ...
  • Профессионал / Killer Elite (Гэри МакКендри, Боевик, Триллер, Криминал, 201 ...
  • Соломенные псы / Straw Dogs (Род Лури, Драма, Триллер, Криминал, 2011) [BDR ...
  • Кориолан / Coriolanus (Рэйф Файнс, Драма, Триллер, 2011) [BDRip 720p, Дубли ...
  • Одержимая / The Devil Inside (Уильям Брент Белл, ужасы, триллер, 2012) [BDR ...
  • Учитель на замену / Detachment (Тони Кэй, драма, 2011) [BDRip 720р, Професс ...
  • Ю-571 / U-571 (Джонатан Мостоу, Боевик, 2000) [BDRip - AVC, Дубляж + Субтит ...
  • Футбольный клуб / Чемпионат Европы 2012 / НТВ+ [Футбол, 08.06.2012, HDTVRip ...
  • Mylene Farmer / Du Temps [2011, Pop, HDTVRip]
  • Mylene Farmer / Bleu Noir [2011, Pop, HDTVRip]
  • Профессионал / Killer Elite (Гэри МакКендри, боевик, триллер, криминал, 201 ...
  • Кориолан / Coriolanus (Рэйф Файнс, Драма, Триллер, 2011) [DVD9, Профессиона ...
  • Кориолан / Coriolanus (Рэйф Файнс, Драма, Триллер, 2011) [HDRip, Полное дуб ...
  • Кориолан / Coriolanus (Рэйф Файнс, триллер, драма, 2011) [Blu-ray Disc, пол ...
  • Кориолан / Coriolanus (Рэйф Файнс, триллер, драма, 2010) [BDRip, Профессион ...
  • Джон Картер / John Carter (Эндрю Стэнтон, Фантастика, 2012) [BDRip-AVC, Дуб ...
  • Кориолан / Coriolanus (Рэйф Файнс, Драма, Триллер, 2011) [HDRip, Дубляж]
  • Информация
    Посетители, находящиеся в группе Гости, не могут оставлять комментарии к данной публикации.